За сегодня опубликовано 18 новых материалов.
Инструкция новичку Путеводитель по форуму Прокси для Telegram Показать подсказки , это бомба!

Скачать Зомби по имени Шон / Shaun of the Dead (2004) WEB-DLRip-AVC | P | Open Matte бесплатно через торрент

  • 90% материалов доступно к скачиванию после простой регистрации!
    Если же ты хочешь скачивать материалы без требования оставлять отзывы то получи группу "Новичок", 10 способов повышения описаны тут -> ссылка
  • К сожалению количество битых ссылок растет и мы уже не можем их оперативно восстанавливать поэтому просим помощи у каждого нашего пользователя.
    С сегодняшнего дня, за каждую восстановленную ссылку мы заплатим Вам.
    Подробнее тут -> ссылка
  • Перенесем твои заслуги с другого ресурса!
    Мы понимаем как сложно прокачивать аккаунты на форумах, вроде раскачал аккаунт, а тут появляется ресурс в 100 раз круче но тоже с системой прокачки и снова качать аккаунт...
    Предлагаем вам перенести Ваши заслуги на другом подобном ресурсе к нам.
    Подробности описаны тут -> ссылка
  • Вы можете получать по 2.5% с каждой покупки и продажи на маркете! Подробности в теме Партнёрская программа
Если Вы не хотите скачивать, Вы всегда можете посмотреть онлайн, просто нажмите кнопку ниже :

Открыть плеер

Torrent_Bot

Торрент-Бот
Бот форума
4 Окт 2016
125
17
20




Информация о фильме
Название: Зомби по имени Шон
Оригинальное название: Shaun of the Dead
Год выхода: 2004
Жанр: ужасы, комедия
Режиссер: Эдгар Райт

В ролях: Саймон Пегг, Ник Фрост, Кейт Эшфилд, Люси Дэвис, Дилан Моран, Пенелопа Уилтон, Питер Серафинович, Билл Найи, Джессика Хайнс, Хортон Юпитер

О фильме:
В жизни Шона все идет наперекосяк: ему 29 лет, он работает обычным продавцом-консультантом в эдаком «Эльдорадо» британского типа, дома постоянные бытовые разборки с сожителями, еще и подруга дает полный отворот-поворот. В общем, не жизнь, а сплошная мука. А тут еще, как назло, начинается какая-то странная эпидемия — ожившие и очень голодные трупы начинают бродить по туманному Альбиону в поисках свежей человечинки, по ходу дела заражая все больше и больше невинных граждан, превращая оных в таких же зомби. Вот тут-то и приходит конец терпению нашего героя! Вместе со своим закадычным другом Эдом, вооружившись дубинами и лопатами, верные друзья выходят на тропу войны, дабы посносить бошки надоедливым зомбякам, спасти своих близких и выжить самим.



Страна: Франция, Великобритания
Студия: Big Talk Productions, Studio Canal, Universal Pictures, Working Title Films
Продолжительность: 01:39:32
Перевод: Профессиональный (многоголосый, закадровый)
Субтитры: Russian, English

Файл
Формат: Matroska
Качество: WEB-DLRip-AVC | Open Matte | Amazon *STARZ*
Видео: x264 / ~2685 kbps / 1024x576 / 23.976 fps / 16:9 / High Profile 4.1
Аудио #1: AC3, 6 ch, ~448 kbps - |Русский| - |MVO, Tycoon Uncensored|
Аудио #2: AC3, 6 ch, ~448 kbps - |Русский| - |MVO, R5|
Формат субтитров: softsub (SRT)

***В переводеTycoon-Studio и субтитрахприсутствует ненормативная лексика!

***Релиз от:-=DoMiNo=-



Примечания и сравнения:
ЦитатаКто-то писал:
Исходник видео WEB-DL Amazon STARZ (периодически появляется логотип)
Open Matte версия фильма, имеет большее наполнение кадра, по сравнению с блюрэй.
Размер файла с одной из аудио дорог = 2,18 Гб.

Blu Ray vs WEB DL Amazon
M/I
x264 info: frame I:1318 Avg QP:17.57 size: 66350
x264 info: frame P:36733 Avg QP:18.53 size: 25568
x264 info: frame B:105146 Avg QP:20.35 size: 9071
x264 info: consecutive B-frames: 5.0% 5.8% 11.4% 20.4% 14.9% 34.7% 5.4% 1.3% 0.9% 0.2% 0.2%

General
Unique ID : 115175437215900719526886618052584427874 (0x56A5FB7A94EF899D395851C02A965162)
Complete name : Зомби по имени Шон.(2004).WEB-DLRip-AVC.O.M.[-=DoMiNo=-].mkv
Format : Matroska
Format version : Version 4
File size : 2.49 GiB
Duration : 1 h 39 min
Overall bit rate : 3 583 kb/s
Movie name : Зомби по имени Шон / Shaun of the Dead (2004)
Encoded date : UTC 2019-05-01 13:30:55
Writing application : mkvmerge v33.1.0 ('Primrose') 64-bit
Writing library : libebml v1.3.7 + libmatroska v1.5.0
Attachments : poster

Video
ID : 1
Format : AVC
Format/Info : Advanced Video Codec
Format profile : [email protected]
Format settings : CABAC / 10 Ref Frames
Format settings, CABAC : Yes
Format settings, Reference : 10 frames
Codec ID : V_MPEG4/ISO/AVC
Duration : 1 h 39 min
Bit rate : 2 685 kb/s
Width : 1 024 pixels
Height : 576 pixels
Display aspect ratio : 16:9
Frame rate mode : Constant
Frame rate : 23.976 (24000/1001) FPS
Color space : YUV
Chroma subsampling : 4:2:0
Bit depth : 8 bits
Scan type : Progressive
Bits/(Pixel*Frame) : 0.190
Stream size : 1.87 GiB (75%)
Title : RIP_BY_-=DoMiNo=-
Writing library : x264 core 157 r2969 d4099dd
Encoding settings : cabac=1 / ref=10 / deblock=1:-3:-3 / analyse=0x3:0x133 / me=umh / subme=11 / psy=1 / psy_rd=1.00:0.00 / mixed_ref=1 / me_range=32 / chroma_me=1 / trellis=2 / 8x8dct=1 / cqm=0 / deadzone=21,11 / fast_pskip=0 / chroma_qp_offset=-2 / threads=6 / lookahead_threads=1 / sliced_threads=0 / nr=0 / decimate=1 / interlaced=0 / bluray_compat=0 / constrained_intra=0 / bframes=10 / b_pyramid=2 / b_adapt=2 / b_bias=0 / direct=3 / weightb=1 / open_gop=0 / weightp=2 / keyint=250 / keyint_min=23 / scenecut=40 / intra_refresh=0 / rc_lookahead=120 / rc=2pass / mbtree=0 / bitrate=2685 / ratetol=1.0 / qcomp=0.70 / qpmin=0 / qpmax=69 / qpstep=4 / cplxblur=20.0 / qblur=0.5 / vbv_maxrate=50000 / vbv_bufsize=62500 / nal_hrd=none / filler=0 / ip_ratio=1.40 / pb_ratio=1.30 / aq=3:0.80
Language : English
Default : Yes
Forced : No
Color range : Limited
Color primaries : BT.709
Transfer characteristics : BT.709
Matrix coefficients : BT.709

Audio #1
ID : 2
Format : AC-3
Format/Info : Audio Coding 3
Commercial name : Dolby Digital
Codec ID : A_AC3
Duration : 1 h 39 min
Bit rate mode : Constant
Bit rate : 448 kb/s
Channel(s) : 6 channels
Channel layout : L R C LFE Ls Rs
Sampling rate : 48.0 kHz
Frame rate : 31.250 FPS (1536 SPF)
Bit depth : 16 bits
Compression mode : Lossy
Stream size : 319 MiB (13%)
Title : MVO_[Tycoon Uncensored]
Language : Russian
Service kind : Complete Main
Default : Yes
Forced : No

Audio #2
ID : 3
Format : AC-3
Format/Info : Audio Coding 3
Commercial name : Dolby Digital
Codec ID : A_AC3
Duration : 1 h 39 min
Bit rate mode : Constant
Bit rate : 448 kb/s
Channel(s) : 6 channels
Channel layout : L R C LFE Ls Rs
Sampling rate : 48.0 kHz
Frame rate : 31.250 FPS (1536 SPF)
Bit depth : 16 bits
Compression mode : Lossy
Stream size : 319 MiB (13%)
Title : MVO_[R5]
Language : Russian
Service kind : Complete Main
Default : No
Forced : No

Text #1
ID : 4
Format : UTF-8
Codec ID : S_TEXT/UTF8
Codec ID/Info : UTF-8 Plain Text
Duration : 1 h 38 min
Bit rate : 112 b/s
Count of elements : 1265
Stream size : 80.6 KiB (0%)
Language : Russian
Default : No
Forced : No

Text #2
ID : 5
Format : UTF-8
Codec ID : S_TEXT/UTF8
Codec ID/Info : UTF-8 Plain Text
Duration : 1 h 33 min
Bit rate : 113 b/s
Count of elements : 1239
Stream size : 77.3 KiB (0%)
Language : Russian
Default : No
Forced : No

Text #3
ID : 6
Format : UTF-8
Codec ID : S_TEXT/UTF8
Codec ID/Info : UTF-8 Plain Text
Duration : 1 h 33 min
Bit rate : 114 b/s
Count of elements : 1237
Stream size : 77.9 KiB (0%)
Language : Russian
Default : No
Forced : No

Text #4
ID : 7
Format : UTF-8
Codec ID : S_TEXT/UTF8
Codec ID/Info : UTF-8 Plain Text
Duration : 1 h 33 min
Bit rate : 98 b/s
Count of elements : 1223
Stream size : 67.0 KiB (0%)
Language : Russian
Default : No
Forced : No

Text #5
ID : 8
Format : UTF-8
Codec ID : S_TEXT/UTF8
Codec ID/Info : UTF-8 Plain Text
Duration : 1 h 33 min
Bit rate : 103 b/s
Count of elements : 1216
Stream size : 70.3 KiB (0%)
Language : Russian
Default : No
Forced : No

Text #6
ID : 9
Format : UTF-8
Codec ID : S_TEXT/UTF8
Codec ID/Info : UTF-8 Plain Text
Duration : 54 s 900 ms
Bit rate : 168 b/s
Count of elements : 16
Stream size : 1.13 KiB (0%)
Language : English
Default : No
Forced : No

Text #7
ID : 10
Format : UTF-8
Codec ID : S_TEXT/UTF8
Codec ID/Info : UTF-8 Plain Text
Duration : 1 h 38 min
Bit rate : 81 b/s
Count of elements : 1652
Stream size : 58.4 KiB (0%)
Title : English [SDH] Amazon
Language : English
Default : No
Forced : No

Menu
00:00:00.000 : :Глава 1
00:07:09.679 : :Глава 2
00:15:14.997 : :Глава 3
00:22:37.690 : :Глава 4
00:28:57.444 : :Глава 5
00:39:59.230 : :Глава 6
00:48:58.561 : :Глава 7
00:58:32.592 : :Глава 8
01:06:19.309 : :Глава 9
01:15:39.368 : :Глава 10
01:22:45.711 : :Глава 11
01:27:51.349 : :Глава 12
01:33:28.311 : :Глава 13
Скриншоты

 

Вложения

  • 13,5 KB Просмотры: 0
    Личеров 0
    Сидеров 0
    Файлов 1
    Объем 2,5 GB
Ваш e-mail не будет опубликован. Он потребуется для подтверждения Вашего поста.
Оформление текста Нажмите «Ввод», чтобы отправить ответ.

Привет!

Мы группа людей которые решили помочь другим в решении их проблем, а так же пользователям с поиском самых свежих и качественных инфопродуктов. За 4 с небольшим месяца мы создали этот форум на который заходят ежедневно тысячи человек и посещаемость постоянно растёт. Мы создали панель лицензирования для защиты PHP скриптов от воровства и SEO панель для мониторинга наших сайтов и выбора верной стратегии их развития. Мы надеемся что то что мы создали пригодится Вам и возможно Вы поможете нам развиваться и совершенствоваться вместе с Вами.

Статистика форума

Темы
347.672
Сообщения
373.572
Пользователи
28.926
Новый пользователь
cargons

Приложения форума для iOS и Android


У ркн там нет власти ;)