Инструкция новичку Путеводитель по форуму Прокси для Telegram Показать подсказки , это бомба!

Скачать Живая мишень (1990) DVDRip-AVC от KORSAR бесплатно через торрент

Если Вы не хотите скачивать, Вы всегда можете посмотреть онлайн, просто нажмите кнопку ниже :

Открыть плеер

Torrent_Bot

Торрент-Бот
Бот форума
4 Окт 2016
98
12



Название: Живая мишень
Год выхода: 1990
Жанр: Криминал, детектив
Режиссер: Марк Айзенберг
В ролях: Александр Фатюшин, Александр Абдулов, Александр Пороховщиков, Игорь Кваша, Эммануил Виторган, Юрий Чекулаев, Ирэна Кокрятская, Вадим Захарченко, Донатас Банионис, Дина Лопухина, Владимир Плотников, Борис Гитин, О.Кублицкий, Вячеслав Богачев, Ю.Олейник, Н.Вилянский, Валерий Немешаев, Г.Ткач, В.Аржиловский, Гоша Беленький, А.Мищенко, Э.Апостолатова, В.Саповский, А.Карагодов, В.Прохоров, Сергей Куренков, Людмила Баранова, И.Тарарина, Анатолий Терпицкий, Петр Юрченков

О фильме: В небольшой провинциальный городок, полностью прибранный к рукам коррумпированными властями и мафиозным кланом, заслан с секретной миссией сотрудник центрального аппарата МВД с заданием выявить каналы незаконного обращения валюты и торговли наркотиками. И мафия, и «отцы города» всеми способами пытаются выявить агента, но он беспощаден и неуловим.



Страна: СССР
Студия: Беларусьфильм
Продолжительность: 01:22:05

Кодек: х264
Качество: DVDRip-AVC
Видео: MPEG-4 AVC, [email protected], 25 fps, 2974 Кбит/с
Аудио #1: AC3, 6 ch, 384 Кбит/с
Аудио #2: AC3, 2 ch, 192 Кбит/с

Скриншоты
Инфо файл
x264 [info]: frame I:649 Avg QP:17.74 size: 82146
x264 [info]: frame P:38920 Avg QP:19.36 size: 34606
x264 [info]: frame B:83572 Avg QP:21.90 size: 5672
x264 [info]: consecutive B-frames: 7.2% 12.3% 18.2% 21.0% 20.1% 19.0% 1.5% 0.5% 0.1% 0.0%


Общее
Уникальный идентификатор : 244085198336047788112121205007252401048 (0xB7A119682AB342BFBC20374AE9872B98)
Полное имя : D:Живая мишень_1990-DVDRip-AVC_KORSAR.mkv
Формат : Matroska
Версия формата : Version 2
Размер файла : 2,08 Гбайт
Продолжительность : 1 ч. 22 м.
Общий поток : 3622 Кбит/сек
Название фильма : Живая мишень_1990-DVDRip-AVC_KORSAR
Дата кодирования : UTC 2019-01-24 06:28:27
Программа кодирования : mkvmerge v5.8.0 ('No Sleep / Pillow') built on Sep 2 2012 15:37:04
Библиотека кодирования : libebml v1.2.3 + libmatroska v1.3.0

Видео
Идентификатор : 1
Формат : AVC
Формат/Информация : Advanced Video Codec
Профиль формата : [email protected]
Параметр CABAC формата : Да
Параметр ReFrames формата : 13 кадров
Идентификатор кодека : V_MPEG4/ISO/AVC
Продолжительность : 1 ч. 22 м.
Битрейт : 2974 Кбит/сек
Ширина : 706 пикселей
Высота : 568 пикселей
Соотношение сторон : 4:3
Соотношение сторон в оригинале : 4:3
Режим частоты кадров : Постоянный
Частота кадров : 25,000 кадров/сек
Цветовое пространство : YUV
Субдискретизация насыщенности : 4:2:0
Битовая глубина : 8 бит
Тип развёртки : Прогрессивная
Бит/(Пиксели*Кадры) : 0.297
Размер потока : 1,71 Гбайт (82%)
Библиотека кодирования : x264 core 152 r2851kMod ba24899
Настройки программы : cabac=1 / ref=13 / deblock=1:-2:-2 / analyse=0x3:0x133 / me=umh / subme=10 / psy=1 / fade_compensate=0.00 / psy_rd=1.05:0.10 / mixed_ref=1 / me_range=40 / chroma_me=1 / trellis=2 / 8x8dct=1 / cqm=0 / deadzone=21,11 / fast_pskip=1 / chroma_qp_offset=-3 / threads=12 / lookahead_threads=2 / sliced_threads=0 / nr=0 / decimate=1 / interlaced=0 / bluray_compat=0 / constrained_intra=0 / bframes=9 / b_pyramid=2 / b_adapt=2 / b_bias=0 / direct=1 / weightb=1 / open_gop=0 / weightp=2 / keyint=250 / keyint_min=25 / scenecut=40 / intra_refresh=0 / rc=crf / mbtree=0 / crf=17.7000 / qcomp=0.63 / qpmin=0 / qpmax=39 / qpstep=4 / ip_ratio=1.40 / pb_ratio=1.30 / aq=1:0.90
Язык : English
Default : Да
Forced : Нет
Основные цвета : BT.601 PAL
Характеристики трансфера : BT.470 System B, BT.470 System G
Коэффициенты матрицы : BT.601

Аудио #1
Идентификатор : 2
Формат : AC-3
Формат/Информация : Audio Coding 3
Расширение режима : CM (complete main)
Параметр Endianness формата : Big
Идентификатор кодека : A_AC3
Продолжительность : 1 ч. 22 м.
Вид битрейта : Постоянный
Битрейт : 384 Кбит/сек
Каналы : 6 каналов
Расположение каналов : Front: L C R, Side: L R, LFE
Частота : 48,0 КГц
Битовая глубина : 16 бит
Метод сжатия : С потерями
Размер потока : 225 Мбайт (11%)
Язык : Russian
Default : Да
Forced : Нет

Аудио #2
Идентификатор : 3
Формат : AC-3
Формат/Информация : Audio Coding 3
Расширение режима : CM (complete main)
Параметр Endianness формата : Big
Идентификатор кодека : A_AC3
Продолжительность : 1 ч. 22 м.
Вид битрейта : Постоянный
Битрейт : 192 Кбит/сек
Каналы : 2 канала
Расположение каналов : Front: L R
Частота : 48,0 КГц
Битовая глубина : 16 бит
Метод сжатия : С потерями
Размер потока : 113 Мбайт (5%)
Язык : Russian
Default : Нет
Forced : Нет

Меню
00:00:00.000 : en:Chapter 1
00:11:38.200 : en:Chapter 2
00:28:04.920 : en:Chapter 3
00:39:44.200 : en:Chapter 4
00:50:32.960 : en:Chapter 5
00:53:32.680 : en:Chapter 6
01:02:58.800 : en:Chapter 7
01:13:05.600 : en:Chapter 8
01:22:05.600 : en:Chapter 9

Релиз от:
 

Вложения

  • 11,3 KB Просмотры: 0
    Личеров 0
    Сидеров 0
    Файлов 1
    Объем 2,1 GB
Ваш e-mail не будет опубликован. Он потребуется для подтверждения Вашего поста.
Оформление текста Нажмите «Ввод», чтобы отправить ответ.

Привет!

Мы группа людей которые решили помочь другим в решении их проблем, а так же пользователям с поиском самых свежих и качественных инфопродуктов. За 4 с небольшим месяца мы создали этот форум на который заходят ежедневно тысячи человек и посещаемость постоянно растёт. Мы создали панель лицензирования для защиты PHP скриптов от воровства и SEO панель для мониторинга наших сайтов и выбора верной стратегии их развития. Мы надеемся что то что мы создали пригодится Вам и возможно Вы поможете нам развиваться и совершенствоваться вместе с Вами.

Статистика форума

Темы
337.509
Сообщения
359.853
Пользователи
25.431
Новый пользователь
NikaNika976

Приложения форума для iOS и Android


У ркн там нет власти ;)
Гостевуха
Помощь Пользователи
  • Captain @ Captain:
    @mizaider, ты там живой?
    Цитата
  • K Chat Bot:
    Гость kkifkaa присоединился к комнате.
  • K (Гость) kkifkaa:
    Всем привет!
    Цитата
  • K (Гость) kkifkaa:
    mizaider тут есть?
    Цитата
  • K Chat Bot:
    Гость kkifkaa присоединился к комнате.
  • K (Гость) kkifkaa:
    Здравствуйте уважаемые члены форума. Подскажите пож-та, что можно сделать если я был заблокирован якобы за: «Вы были заблокированы по следующей причине: Копирование материалов на другие ресурсы». Самое страшное, то что тебя обвиняют и не дают возможность пообщаться и разобраться в причинах. Кстати в такой ситуации может быть каждый из нас. Вот так стараешься размещаешь тут материал, а тебя без разбирательств в бан. И нет возможности обратится в тех поддержку т.к. твой аккаут заблокирован. Подскажите пож-та, как можно связаться с администрацией, чтобы была проведена проверка? Сейчас я новичок и как раз в этот день для нас заливал на форум новые курсы (один залил, второй не успел). Я сначала подумал, что какой-то запрещений материал разместил, а потом понял, что меня обвинили в том, что я не делал.
    Цитата
  • K (Гость) kkifkaa:
    mizaider ты здесь помоги пожалуйста!
    Цитата
  • mizaider @ mizaider:
    Вопрос решен.
    Цитата
  • goodness @ goodness:
    Добрый вечер уважаемые форумчане!)
    Цитата
  • goodness @ goodness:
    Вопрос к администрации: Имеется одна точка доступа wifi на квартиру, вашим форумом пользуюсь пока что только я, но хотел бы зарегистрировать и свою девушку,
    Цитата
  • goodness @ goodness:
    система нас не забанит из-за того что мы с одной точки доступа но с разных устройств?
    Цитата
  • mizaider @ mizaider:
    Не забанит
    Цитата
  • Captain @ Captain:
    Батя в здание
    Цитата
  • 13SASHA13 @ 13SASHA13:
    Цитата
  • Uggi Chat Bot:
    Uggi покинул(а) комнату.
  • M Chat Bot:
    mr_robot_i2p покинул(а) комнату.
  • Captain @ Captain:
    Батя в здание
    Цитата
  • J Chat Bot:
    joker567 покинул(а) комнату.
    J Chat Bot: joker567 покинул(а) комнату.