За сегодня опубликовано 0 новых материалов.
Инструкция новичку Путеводитель по форуму Прокси для Telegram Показать подсказки , это бомба!

Скачать За гранью реальности (2018) WEB-DL 1080p | iTunes бесплатно через торрент

  • Получай до 480 рублей за каждого приглашенного пользователя!
    представляем Вам очередное расширение партнерской программы, подробности описаны тут -> ссылка
  • 90% материалов доступно к скачиванию после простой регистрации!
    Если же ты хочешь скачивать материалы без требования оставлять отзывы то получи группу "Новичок", 10 способов повышения описаны тут -> ссылка
  • К сожалению количество битых ссылок растет и мы уже не можем их оперативно восстанавливать поэтому просим помощи у каждого нашего пользователя.
    С сегодняшнего дня, за каждую восстановленную ссылку мы заплатим Вам.
    Подробнее тут -> ссылка
  • Перенесем твои заслуги с другого ресурса!
    Мы понимаем как сложно прокачивать аккаунты на форумах, вроде раскачал аккаунт, а тут появляется ресурс в 100 раз круче но тоже с системой прокачки и снова качать аккаунт...
    Предлагаем вам перенести Ваши заслуги на другом подобном ресурсе к нам.
    Подробности описаны тут -> ссылка
  • Вы можете получать по 2.5% с каждой покупки и продажи на маркете! Подробности в теме Партнёрская программа
Если Вы не хотите скачивать, Вы всегда можете посмотреть онлайн, просто нажмите кнопку ниже :

Открыть плеер

Torrent_Bot

Торрент-Бот
Бот форума
4 Окт 2016
125
31
20
Информация о фильме
Название: За гранью реальности
Год выхода: 2018
Жанр: Приключения, фэнтези
Режиссер: Александр Богуславский
В ролях: Милош Бикович, Антонио Бандерас, Любовь Аксенова, Евгений Стычкин, Юрий Чурсин, Аристарх Венес, Петар Зекавица, Сергей Астахов, Никита Дювбанов, Михаил Михеев

О фильме:
Майкл, талантливый аферист, собирает команду людей с паранормальными способностями, чтобы ограбить казино. Однако все идет не по плану, и герои оказываются в смертельной опасности. Чтобы спасти их, Майклу придется действовать за гранью реальности — в загадочном мире подсознания, откуда проистекают сверхспособности его друзей.

94d4c106ce91570e597fa64524556db6.gif4422423474651a5fcb37aa382f1266c5.gif

Страна: Россия
Студия: KINODANZ
Продолжительность: 01:42:16
Язык: Русский | iTunes

Файл
Формат: MKV
Качество: WEB-DL 1080p
Видео: AVC/H.264, 1920x806 (2.40:1), 4564 kbps
Аудио: 48 kHz, AC3 Dolby Digital, 3/2 (L,C,R,l,r) + LFE ch, ~384 kbps
Субтитры: Нет

7f749cfcf03186ca0d0e275f721ba806.gif

M/I
Общее
Уникальный идентификатор : 215244844504861462211199748559014872939 (0xA1EEA62E158C7F46A44546CE89A6476B)
Полное имя : D:За.гранью.реальности.2018.WEB-DL.[1080p].NNMClub.mkv
Формат : Matroska
Версия формата : Version 2
Размер файла : 3,54 Гбайт
Продолжительность : 1 ч. 42 м.
Общий поток : 4950 Кбит/сек
Название фильма : За.гранью.реальности.2018.WEB-DL.[1080p].NNMClub
Дата кодирования : UTC 2018-03-30 18:07:07
Программа кодирования : mkvmerge v8.3.0 ('Over the Horizon') 64bit
Библиотека кодирования : libebml v1.3.1 + libmatroska v1.4.2

Видео
Идентификатор : 1
Формат : AVC
Формат/Информация : Advanced Video Codec
Профиль формата : [email protected]
Параметр CABAC формата : Да
Параметр ReFrames формата : 5 кадров
Идентификатор кодека : V_MPEG4/ISO/AVC
Продолжительность : 1 ч. 42 м.
Битрейт : 4564 Кбит/сек
Ширина : 1920 пикселей
Высота : 806 пикселей
Соотношение сторон : 2,40:1
Режим частоты кадров : Постоянный
Частота кадров : 25,000 кадров/сек
Цветовое пространство : YUV
Субдискретизация насыщенности : 4:2:0
Битовая глубина : 8 бит
Тип развёртки : Прогрессивная
Бит/(Пиксели*Кадры) : 0.118
Размер потока : 3,26 Гбайт (92%)
Язык : English
Default : Да
Forced : Нет
Цветовой диапазон : Limited
Основные цвета : BT.709
Характеристики трансфера : BT.709
Коэффициенты матрицы : BT.709

Аудио
Идентификатор : 2
Формат : AC-3
Формат/Информация : Audio Coding 3
Расширение режима : CM (complete main)
Параметр Endianness формата : Big
Идентификатор кодека : A_AC3
Продолжительность : 1 ч. 42 м.
Вид битрейта : Постоянный
Битрейт : 384 Кбит/сек
Каналы : 6 каналов
Расположение каналов : Front: L C R, Side: L R, LFE
Частота : 48,0 КГц
Частота кадров : 31,250 кадров/сек (1536 spf)
Метод сжатия : С потерями
Размер потока : 281 Мбайт (8%)
Язык : Russian
Default : Да
Forced : Нет

Меню
00:00:00.000 : en:Глава 1
00:07:35.120 : en:Глава 2
00:15:02.920 : en:Глава 3
00:23:07.160 : en:Глава 4
00:32:05.440 : en:Глава 5
00:40:45.640 : en:Глава 6
00:48:56.480 : en:Глава 7
00:56:55.760 : en:Глава 8
01:05:57.800 : en:Глава 9
01:14:50.560 : en:Глава 10
01:23:06.760 : en:Глава 11
01:32:41.880 : en:Глава 12
Скриншоты
3d7f3de1dfe2b82fbafff639507ca8fe.jpg5daace6a7f36c92ec742dee1d6715717.jpg58f1cf1168fffab29ba51148060bd162.jpgd01bb5a0577a8c8ce0e922ecb4611999.jpg
 

Вложения

Ваш e-mail не будет опубликован. Он потребуется для подтверждения Вашего поста.
Оформление текста Нажмите «Ввод», чтобы отправить ответ.