За сегодня опубликовано 0 новых материалов.
Инструкция новичку Путеводитель по форуму Прокси для Telegram Показать подсказки , это бомба!

Скачать Хроники Риддика / The Chronicles of Riddick (2004) WEB-DLRip-AVC | D | Open Matte бесплатно через торрент

  • Получай до 480 рублей за каждого приглашенного пользователя!
    представляем Вам очередное расширение партнерской программы, подробности описаны тут -> ссылка
  • 90% материалов доступно к скачиванию после простой регистрации!
    Если же ты хочешь скачивать материалы без требования оставлять отзывы то получи группу "Новичок", 10 способов повышения описаны тут -> ссылка
  • К сожалению количество битых ссылок растет и мы уже не можем их оперативно восстанавливать поэтому просим помощи у каждого нашего пользователя.
    С сегодняшнего дня, за каждую восстановленную ссылку мы заплатим Вам.
    Подробнее тут -> ссылка
  • Перенесем твои заслуги с другого ресурса!
    Мы понимаем как сложно прокачивать аккаунты на форумах, вроде раскачал аккаунт, а тут появляется ресурс в 100 раз круче но тоже с системой прокачки и снова качать аккаунт...
    Предлагаем вам перенести Ваши заслуги на другом подобном ресурсе к нам.
    Подробности описаны тут -> ссылка
  • Вы можете получать по 2.5% с каждой покупки и продажи на маркете! Подробности в теме Партнёрская программа
Если Вы не хотите скачивать, Вы всегда можете посмотреть онлайн, просто нажмите кнопку ниже :

Открыть плеер

Torrent_Bot

Торрент-Бот
Бот форума
4 Окт 2016
125
32
20



Информация о фильме
Название: Хроники Риддика
Оригинальное название: The Chronicles of Riddick
Год выхода: 2004
Жанр: Фантастика, приключения
Режиссер: Дэвид Туи
В ролях: Вин Дизель, Колм Фиор, Тэнди Ньютон, Джуди Денч, Карл Урбан, Алекса Давалос, Лайнас Роуч, Йорик ван Вагенинген, Ник Чинланд, Кит Дэвид

О фильме:
«Хроники Риддика» ("The Cronicles of Riddick") — продолжение картины «Кромешная тьма» ("Pitch Black"), одного из самых нашумевших фильмов в жанре dark space opera. Культовый Вин Дизель в очках и с неизменной лысиной продолжает повествовать замечательную биографию космического маньяка по имени Риддик, который должен непременно спаси Вселенную.
XXVI век. Риддик, галактический антигерой, вечный преступник со своим оригинальным взглядом на жизнь, вновь бежит из космической колонии, чтобы оказаться на планете Гелион, где сокрыта тайна его происхождения. Поминутно сталкиваясь с охотниками за головами и прочей внеземной опасностью, Риддик в компании с новыми друзьями противостоит жестокому Лорду Маршалу, предводителю Нового Крестового похода против всего живого и мертвого во Вселенной.



Страна: США
Студия: Universal Pictures, Radar Pictures, One Race Productions, Primal Foe Productions
Продолжительность: 01:59:18
Перевод: Дубляж [Мосфильм-Мастер]
Субтитры: Русские, Английские

Файл
Формат: Matroska
Качество: WEB-DLRip-AVC | Open Matte | AMZN - *STARZ*
Видео: 958x540, ~2169 kbps, 23.976 fps
Аудио: AC3, 6 ch, ~448 kbps - | Русский | -
Формат субтитров: softsub (SRT)

***Релиз от:-=DoMiNo=-

Сравнения => Blu-ray vs WEB-DL 1080р Open Matte

Дополнительно:
Open Matte версия - имеет большее наполнение кадра - чем BLU-RAY.

Периодически появляется логотип канала STARZ
M/I
x264 info: frame I:1348 Avg QP:16.96 size: 52626
x264 info: frame P:52935 Avg QP:17.94 size: 20658
x264 info: frame B:117346 Avg QP:19.96 size: 6515
x264 info: consecutive B-frames: 7.3% 12.3% 15.0% 23.4% 15.1% 22.3% 2.9% 0.9% 0.4% 0.1% 0.1% 0.1% 0.1%

General
Unique ID : 228125927560277139478061688764462214893 (0xAB9F749B8369A99454FA8B379EFF2EED)
Complete name : Хроники Риддика.(2004).WEB-DLRip-AVC.O.M.[-=DoMiNo=-].mkv
Format : Matroska
Format version : Version 4
File size : 2.18 GiB
Duration : 1 h 59 min
Overall bit rate : 2 617 kb/s
Movie name : Хроники Риддика / The Chronicles of Riddick (2004)
Deion : «Хроники Риддика» ("The Cronicles of Riddick") — продолжение картины «Кромешная тьма» ("Pitch Black"), одного из самых нашумевших фильмов в жанре dark space opera. Культовый Вин Дизель в очках и с неизменной лысиной продолжает повествовать замечательную биографию космического маньяка по имени Риддик, который должен непременно спаси Вселенную. / XXVI век. Риддик, галактический антигерой, вечный преступник со своим оригинальным взглядом на жизнь, вновь бежит из космической колонии, чтобы оказаться на планете Гелион, где сокрыта тайна его происхождения. Поминутно сталкиваясь с охотниками за головами и прочей внеземной опасностью, Риддик в компании с новыми друзьями противостоит жестокому Лорду Маршалу, предводителю Нового Крестового похода против всего живого и мертвого во Вселенной.
Attachments : poster.jpg / cover.jpg
ACTORS : Вин Дизель, Колм Фиор, Тэнди Ньютон, Джуди Денч, Карл Урбан, Алекса Давалос, Лайнас Роуч, Йорик ван Вагенинген, Ник Чинланд, Кит Дэвид

Video
ID : 1
Format : AVC
Format/Info : Advanced Video Codec
Format profile : [email protected]
Format settings : CABAC / 14 Ref Frames
Format settings, CABAC : Yes
Format settings, Reference : 14 frames
Codec ID : V_MPEG4/ISO/AVC
Duration : 1 h 59 min
Bit rate : 2 169 kb/s
Width : 958 pixels
Height : 540 pixels
Display aspect ratio : 16:9
Frame rate mode : Constant
Frame rate : 23.976 (24000/1001) FPS
Color space : YUV
Chroma subsampling : 4:2:0
Bit depth : 8 bits
Scan type : Progressive
Bits/(Pixel*Frame) : 0.175
Stream size : 1.77 GiB (81%)
Title : RIP_BY_-=DoMiNo=- | Open Matte
Writing library : x264 core 157 r2935 545de2f
Encoding settings : cabac=1 / ref=14 / deblock=1:-2:-2 / analyse=0x3:0x133 / me=umh / subme=11 / psy=1 / psy_rd=1.10:0.20 / mixed_ref=1 / me_range=32 / chroma_me=1 / trellis=2 / 8x8dct=1 / cqm=0 / deadzone=21,11 / fast_pskip=0 / chroma_qp_offset=-3 / threads=6 / lookahead_threads=1 / sliced_threads=0 / nr=0 / decimate=0 / interlaced=0 / bluray_compat=0 / constrained_intra=0 / bframes=12 / b_pyramid=2 / b_adapt=2 / b_bias=0 / direct=3 / weightb=1 / open_gop=0 / weightp=2 / keyint=240 / keyint_min=24 / scenecut=40 / intra_refresh=0 / rc=2pass / mbtree=0 / bitrate=2169 / ratetol=1.0 / qcomp=0.70 / qpmin=0 / qpmax=69 / qpstep=4 / cplxblur=20.0 / qblur=0.5 / ip_ratio=1.40 / pb_ratio=1.30 / aq=3:0.80
Language : English
Default : Yes
Forced : No
Color range : Limited
Color primaries : BT.709
Transfer characteristics : BT.709
Matrix coefficients : BT.709

Audio
ID : 2
Format : AC-3
Format/Info : Audio Coding 3
Commercial name : Dolby Digital
Codec ID : A_AC3
Duration : 1 h 59 min
Bit rate mode : Constant
Bit rate : 448 kb/s
Channel(s) : 6 channels
Channel layout : L R C LFE Ls Rs
Sampling rate : 48.0 kHz
Frame rate : 31.250 FPS (1536 SPF)
Bit depth : 16 bits
Compression mode : Lossy
Stream size : 383 MiB (17%)
Title : Дубляж [Мосфильм-Мастер]
Language : Russian
Service kind : Complete Main
Default : Yes
Forced : No

Text #1
ID : 3
Format : UTF-8
Codec ID : S_TEXT/UTF8
Codec ID/Info : UTF-8 Plain Text
Language : Russian
Default : Yes
Forced : No

Text #2
ID : 4
Format : UTF-8
Codec ID : S_TEXT/UTF8
Codec ID/Info : UTF-8 Plain Text
Language : English
Default : No
Forced : No

Text #3
ID : 5
Format : UTF-8
Codec ID : S_TEXT/UTF8
Codec ID/Info : UTF-8 Plain Text
Title : SDH
Language : English
Default : No
Forced : No

Menu
00:00:00.000 : :Глава 01
00:10:00.000 : :Глава 02
00:20:00.000 : :Глава 03
00:30:00.000 : :Глава 04
00:40:00.000 : :Глава 05
00:50:00.000 : :Глава 06
01:00:00.000 : :Глава 07
01:10:00.000 : :Глава 08
01:20:00.000 : :Глава 09
01:30:00.000 : :Глава 10
01:40:00.000 : :Глава 11
01:50:00.000 : :Глава 12
Скриншоты
 

Вложения

  • 11,9 KB Просмотры: 0
    Личеров 0
    Сидеров 0
    Файлов 1
    Объем 2,2 GB
Ваш e-mail не будет опубликован. Он потребуется для подтверждения Вашего поста.
Оформление текста Нажмите «Ввод», чтобы отправить ответ.