За сегодня опубликовано 10 новых материалов.
Инструкция новичку Путеводитель по форуму Прокси для Telegram Показать подсказки , это бомба!

Скачать Хождение за три моря (1957) DVDRip-AVC от KORSAR бесплатно через торрент

  • Получай до 480 рублей за каждого приглашенного пользователя!
    представляем Вам очередное расширение партнерской программы, подробности описаны тут -> ссылка
  • 90% материалов доступно к скачиванию после простой регистрации!
    Если же ты хочешь скачивать материалы без требования оставлять отзывы то получи группу "Новичок", 10 способов повышения описаны тут -> ссылка
  • К сожалению количество битых ссылок растет и мы уже не можем их оперативно восстанавливать поэтому просим помощи у каждого нашего пользователя.
    С сегодняшнего дня, за каждую восстановленную ссылку мы заплатим Вам.
    Подробнее тут -> ссылка
  • Перенесем твои заслуги с другого ресурса!
    Мы понимаем как сложно прокачивать аккаунты на форумах, вроде раскачал аккаунт, а тут появляется ресурс в 100 раз круче но тоже с системой прокачки и снова качать аккаунт...
    Предлагаем вам перенести Ваши заслуги на другом подобном ресурсе к нам.
    Подробности описаны тут -> ссылка
  • Вы можете получать по 2.5% с каждой покупки и продажи на маркете! Подробности в теме Партнёрская программа
Если Вы не хотите скачивать, Вы всегда можете посмотреть онлайн, просто нажмите кнопку ниже :

Открыть плеер

Torrent_Bot

Торрент-Бот
Бот форума
4 Окт 2016
125
32
20

Хождение за три моря

Страна: СССР, Индия
Жанр: Биографический, исторический, приключения
Год выпуска: 1957
Продолжительность: 01:31:25 + 00:51:56
Перевод: Не требуется
Режиссер: Василий Пронин, Ходжа Ахмад Аббас
В ролях: Олег Стриженов, Наргис, Ия Арепина, Вячеслав Баландин, Виталий Беляков, Иван Жеваго, Притхвирадж Капур, Степан Каюков, Никифор Колофидин, Варвара Обухова, Борис Терентьев, Леонид Топчиев, Владимир Тягушев, Всеволод Якут, Лев Лобов, Михаил Трояновский

Описание: Тверской купец Афанасий Никитин давно мечтал о путешествиях и дальних странах. Мечты становятся реальностью, когда он отправляется в Индию - страну чудес, которую не посещал ни один европеец. Невероятные приключения, опасности и предательство, настоящая любовь и верность - всё пришлось испытать путешественнику...

Доп. информация: Историко-биографический фильм, снятый по путевым заметкам русского путешественника и первооткрывателя Афанасия Никитина. Его сочинение "Хождение за три моря", рассказывающее о государственном строе, хозяйстве, религии, быте и природе Индии, стало не только точным источником сведений об этой стране, но и памятником русской литературы. Эта книга была переведена на многие языки.



Кодек: х264
Качество: DVDRip-AVC
Видео: MPEG-4 AVC, 716х[email protected]х434, 25 fps, 3750 Кбит/с
Аудио: АС3, 6 сh, 448 Кбит/с, АС3, 1 сh, 224 Кбит/с
Субтитры: Нет
Главы: Есть

Инфо файл
x264 [info]: frame I:424 Avg QP:17.51 size: 97514
x264 [info]: frame P:24122 Avg QP:20.01 size: 38671
x264 [info]: frame B:53373 Avg QP:21.12 size: 9127

Общее
Уникальный идентификатор : 237669275357148968338375032086825237335 (0xB2CD6FFB3930B05EA9B8BAFC559F7B57)
Полное имя : I:СССРХождение за три моря 1957_ DVDRip-AVC_ KORSARХождение за три моря 1 серия 1957_ DVDRip-AVC_ KORSAR.mkv
Формат : Matroska
Версия формата : Version 2
Размер файла : 2,83 Гбайт
Продолжительность : 1 ч. 31 м.
Общий поток : 4424 Кбит/сек
Название фильма : mister.hats
Дата кодирования : UTC 2018-05-25 13:21:43
Программа кодирования : mkvmerge v5.8.0 ('No Sleep / Pillow') built on Sep 2 2012 15:37:04
Библиотека кодирования : libebml v1.2.3 + libmatroska v1.3.0

Видео
Идентификатор : 1
Формат : AVC
Формат/Информация : Advanced Video Codec
Профиль формата : [email protected]
Настройки формата : CABAC / 14 Ref Frames
Параметр CABAC формата : Да
Параметр RefFrames формата : 14 кадров
Идентификатор кодека : V_MPEG4/ISO/AVC
Продолжительность : 1 ч. 31 м.
Битрейт : 3750 Кбит/сек
Ширина : 716 пикселей
Высота : 434 пикселя
Соотношение сторон : 2,35:1
Режим частоты кадров : Постоянный
Частота кадров : 25,000 кадров/сек
Цветовое пространство : YUV
Субдискретизация насыщенности : 4:2:0
Битовая глубина : 8 бит
Тип развёртки : Прогрессивная
Бит/(Пиксели*Кадры) : 0.483
Размер потока : 2,34 Гбайт (83%)
Библиотека кодирования : x264 core 152 r2851kMod ba24899
Настройки программы : cabac=1 / ref=14 / deblock=1:-2:-2 / analyse=0x3:0x133 / me=umh / subme=11 / psy=1 / fade_compensate=0.00 / psy_rd=1.05:0.10 / mixed_ref=1 / me_range=48 / chroma_me=1 / trellis=2 / 8x8dct=1 / cqm=0 / deadzone=21,11 / fast_pskip=0 / chroma_qp_offset=-3 / threads=12 / lookahead_threads=2 / sliced_threads=0 / nr=0 / decimate=0 / interlaced=0 / bluray_compat=0 / constrained_intra=0 / bframes=8 / b_pyramid=2 / b_adapt=2 / b_bias=0 / direct=3 / weightb=1 / open_gop=0 / weightp=2 / keyint=250 / keyint_min=25 / scenecut=40 / intra_refresh=0 / rc_lookahead=40 / rc=2pass / mbtree=0 / bitrate=3750 / ratetol=1.0 / qcomp=0.60 / qpmin=0 / qpmax=39 / qpstep=4 / cplxblur=20.0 / qblur=0.5 / vbv_maxrate=50000 / vbv_bufsize=62500 / nal_hrd=none / filler=0 / ip_ratio=1.25 / pb_ratio=1.30 / aq=1:1.00
Язык : English
Default : Да
Forced : Нет
Цветовой диапазон : Limited
Основные цвета : BT.601 PAL
Характеристики трансфера : BT.470 System B, BT.470 System G
Коэффициенты матрицы : BT.470 System B, BT.470 System G

Аудио #1
Идентификатор : 2
Формат : AC-3
Формат/Информация : Audio Coding 3
Параметр Endianness формата : Big
Идентификатор кодека : A_AC3
Продолжительность : 1 ч. 31 м.
Вид битрейта : Постоянный
Битрейт : 448 Кбит/сек
Каналы : 6 каналов
Расположение каналов : Front: L C R, Side: L R, LFE
Частота : 48,0 КГц
Частота кадров : 31,250 кадров/сек (1536 SPF)
Битовая глубина : 16 бит
Метод сжатия : С потерями
Размер потока : 293 Мбайт (10%)
Язык : Russian
Default : Да
Forced : Нет

Аудио #2
Идентификатор : 3
Формат : AC-3
Формат/Информация : Audio Coding 3
Параметр Endianness формата : Big
Идентификатор кодека : A_AC3
Продолжительность : 1 ч. 31 м.
Вид битрейта : Постоянный
Битрейт : 224 Кбит/сек
Каналы : 1 канал
Расположение каналов : Front: C
Частота : 48,0 КГц
Частота кадров : 31,250 кадров/сек (1536 SPF)
Битовая глубина : 16 бит
Метод сжатия : С потерями
Размер потока : 146 Мбайт (5%)
Язык : Russian
Default : Нет
Forced : Нет

Меню
00:00:00.000 : en:Chapter 1
00:05:11.520 : en:Chapter 2
00:11:45.120 : en:Chapter 3
00:20:29.760 : en:Chapter 4
00:29:28.320 : en:Chapter 5
00:39:47.520 : en:Chapter 6
00:46:05.760 : en:Chapter 7
00:52:22.080 : en:Chapter 8
01:03:23.520 : en:Chapter 9
01:07:40.320 : en:Chapter 10
01:17:06.240 : en:Chapter 11
01:23:15.840 : en:Chapter 12
Скриншоты
 

Вложения

  • 23,3 KB Просмотры: 0
    Личеров 0
    Сидеров 0
    Файлов 2
    Объем 4,4 GB
Ваш e-mail не будет опубликован. Он потребуется для подтверждения Вашего поста.
Оформление текста Нажмите «Ввод», чтобы отправить ответ.