За сегодня опубликовано 14 новых материалов.
Инструкция новичку Путеводитель по форуму Прокси для Telegram Показать подсказки , это бомба!

Скачать Хармс (2017) WEB-DLRip-AVC от OlLanDGroup | iTunes бесплатно через торрент

  • Получай до 480 рублей за каждого приглашенного пользователя!
    представляем Вам очередное расширение партнерской программы, подробности описаны тут -> ссылка
  • 90% материалов доступно к скачиванию после простой регистрации!
    Если же ты хочешь скачивать материалы без требования оставлять отзывы то получи группу "Новичок", 10 способов повышения описаны тут -> ссылка
  • К сожалению количество битых ссылок растет и мы уже не можем их оперативно восстанавливать поэтому просим помощи у каждого нашего пользователя.
    С сегодняшнего дня, за каждую восстановленную ссылку мы заплатим Вам.
    Подробнее тут -> ссылка
  • Перенесем твои заслуги с другого ресурса!
    Мы понимаем как сложно прокачивать аккаунты на форумах, вроде раскачал аккаунт, а тут появляется ресурс в 100 раз круче но тоже с системой прокачки и снова качать аккаунт...
    Предлагаем вам перенести Ваши заслуги на другом подобном ресурсе к нам.
    Подробности описаны тут -> ссылка
  • Вы можете получать по 2.5% с каждой покупки и продажи на маркете! Подробности в теме Партнёрская программа
Если Вы не хотите скачивать, Вы всегда можете посмотреть онлайн, просто нажмите кнопку ниже :

Открыть плеер

Torrent_Bot

Торрент-Бот
Бот форума
4 Окт 2016
125
31
20


Хармс
«Из дома вышел человек»



Год выпуска: 2017
Страна: Россия
Производство: Proline FilmProline Film
Жанр: драма, биография

Режиссёр: Иван Болотников
В ролях: Войтек Урбаньски, Айсте Диржюте, Дариус Гумаускас, Артем Семакин, Андрей Феськов, Александр Баширов, Никита Кукушкин

Перевод: Не требуется | iTunes
Субтитры: Нет
Реклама: Отсутствует

Описание: Он сам считает себя гением, но издательства отказываются печатать его произведения. Он любит женщин, но те не всегда его понимают. Постоянное отсутствие денег и отстраненность от реальности. Элегантный пижон Даниил Ювачев называет себя не менее эффектно — Хармс. Он завсегдатай беспрерывных литературных тусовок и любитель эпатажа. Живя в обществе, он совершенно от него оторван. Хармс бросает вызов времени, смело кидается в пучину действительности, размытой и вполне условной, с той же долей противоречий, какой была исполнена его натура.
В атмосфере его ветхой квартиры и редакции детских журналов «Чиж» и «Ёж», ленинградских улиц, набережных и крыш разворачивается удивительная битва человека с самим собой, своими пороками, страстями, с целым миром, в котором он существует, будто запертый в клетку. Справится ли он с давлением общества, любовными коллизиями, невозможностью заниматься творчеством..?



Качество: WEB-DLRip-AVC
Продолжительность: 01:35:36

Формат: MKV
Видео кодек: MPEG-4 AVC
Аудио кодек: AC3
Видео: 720x388 (1,85:1), 24,000 fps, x264 ~896 kbps avg, 0.134 bit/pixel
Аудио: 48 kHz, AC3 Dolby Digital, 2 (L,R) ch, ~ 192.00 kbps avg | RUS (iTunes)

Дата премьеры (РФ): 2 ноября 2017, «Парадиз»


Релиз от: Rip by:

MediaInfo
Общее
Уникальный идентификатор : 74710057561536002503577723941286310433 (0x3834A23A31974EC1152C5BEC7D57F221)
Полное имя : D:ВидеоHarms.(2017) WEB-DLRip(AVC).OlLanDGroup.mkv
Формат : Matroska
Версия формата : Version 4 / Version 2
Размер файла : 744 Мбайт
Продолжительность : 1 ч. 35 м.
Общий поток : 1088 Кбит/сек
Название фильма : Хармс.2017.Rip by Vovan366
Дата кодирования : UTC 2018-12-20 09:09:24
Программа кодирования : mkvmerge v28.2.0 ('The Awakening') 64-bit
Библиотека кодирования : libebml v1.3.6 + libmatroska v1.4.9
DURATION : 01:35:20.250000000
NUMBER_OF_FRAMES : 823
NUMBER_OF_BYTES : 27070
_STATISTICS_WRITING_APP : mkvmerge v28.2.0 ('The Awakening') 64-bit
_STATISTICS_WRITING_DATE_UTC : 2018-12-20 09:09:24
_STATISTICS_TAGS : BPS DURATION NUMBER_OF_FRAMES NUMBER_OF_BYTES
Attachment : Yes

Видео
Идентификатор : 1
Формат : AVC
Формат/Информация : Advanced Video Codec
Профиль формата : [email protected]
Параметр CABAC формата : Да
Параметр ReFrames формата : 9 кадров
Идентификатор кодека : V_MPEG4/ISO/AVC
Продолжительность : 1 ч. 35 м.
Битрейт : 896 Кбит/сек
Ширина : 720 пикселей
Высота : 388 пикселей
Соотношение сторон : 1,85:1
Режим частоты кадров : Постоянный
Частота кадров : 24,000 кадра/сек
Цветовое пространство : YUV
Субдискретизация насыщенности : 4:2:0
Битовая глубина : 8 бит
Тип развёртки : Прогрессивная
Бит/(Пиксели*Кадры) : 0.134
Размер потока : 598 Мбайт (80%)
Заголовок : Harms.(2017) WEB-DLRip(AVC).OlLanDGroup
Библиотека кодирования : x264 core 146 r2538 121396c
Настройки программы : cabac=1 / ref=9 / deblock=1:-3:-3 / analyse=0x3:0x133 / me=umh / subme=10 / psy=1 / psy_rd=1.00:0.00 / mixed_ref=1 / me_range=32 / chroma_me=1 / trellis=2 / 8x8dct=1 / cqm=0 / deadzone=21,11 / fast_pskip=0 / chroma_qp_offset=-2 / threads=6 / lookahead_threads=1 / sliced_threads=0 / nr=0 / decimate=0 / interlaced=0 / bluray_compat=0 / constrained_intra=0 / bframes=10 / b_pyramid=2 / b_adapt=1 / b_bias=0 / direct=3 / weightb=1 / open_gop=0 / weightp=2 / keyint=240 / keyint_min=23 / scenecut=40 / intra_refresh=0 / rc_lookahead=40 / rc=2pass / mbtree=0 / bitrate=896 / ratetol=1.0 / qcomp=0.60 / qpmin=0 / qpmax=69 / qpstep=4 / cplxblur=20.0 / qblur=0.5 / vbv_maxrate=50000 / vbv_bufsize=52500 / nal_hrd=none / filler=0 / ip_ratio=1.40 / pb_ratio=1.30 / aq=1:1.00
Default : Да
Forced : Нет

Аудио
Идентификатор : 2
Формат : AC-3
Формат/Информация : Audio Coding 3
Расширение режима : CM (complete main)
Параметр Endianness формата : Big
Идентификатор кодека : A_AC3
Продолжительность : 1 ч. 35 м.
Вид битрейта : Постоянный
Битрейт : 192 Кбит/сек
Каналы : 2 канала
Расположение каналов : Front: L R
Частота : 48,0 КГц
Битовая глубина : 16 бит
Метод сжатия : С потерями
Размер потока : 131 Мбайт (18%)
Язык : Russian
Default : Да
Forced : Нет

Текст
Идентификатор : 3
Формат : UTF-8
Идентификатор кодека : S_TEXT/UTF8
Идентификатор кодека/Информация : UTF-8 Plain Text
Язык : English
Default : Нет
Forced : Нет

Меню
00:00:00.000 : ru:1
00:05:21.666 : ru:2
00:11:44.916 : ru:3
00:16:53.374 : ru:4
00:21:26.540 : ru:5
00:31:44.165 : ru:6
00:36:58.415 : ru:7
00:43:59.873 : ru:8
00:51:22.539 : ru:9
00:58:47.830 : ru:10
01:06:37.288 : ru:11
01:13:47.663 : ru:12
01:18:46.204 : ru:13
01:24:28.787 : ru:14
01:29:55.787 : ru:15

 

Вложения

  • 15,5 KB Просмотры: 0
    Личеров 0
    Сидеров 0
    Файлов 1
    Объем 744 MB
Ваш e-mail не будет опубликован. Он потребуется для подтверждения Вашего поста.
Оформление текста Нажмите «Ввод», чтобы отправить ответ.