За последнюю неделю опубликовано 42 новых материалов.
Инструкция новичку Путеводитель по форуму Прокси для Telegram Показать подсказки , это бомба!

Хан Соло: Звёздные Войны. Истории / Solo: A Star Wars Story (2018) BDRip-HEVC 1080p от KORSAR | Локализованная версия | Лицензия

  • Поучаствуй (в качестве покупателя) в любых пяти совместных покупках (кроме завершённых и "Моментальных") и получи группу "Новичок" навсегда -> ссылка на раздел
  • Получай до 480 рублей за каждого приглашенного пользователя!
    представляем Вам очередное расширение партнерской программы, подробности описаны тут -> ссылка
  • 90% материалов доступно к скачиванию после простой регистрации!
    Если же ты хочешь скачивать материалы без требования оставлять отзывы то получи группу "Новичок", 10 способов повышения описаны тут -> ссылка
  • К сожалению количество битых ссылок растет и мы уже не можем их оперативно восстанавливать поэтому просим помощи у каждого нашего пользователя.
    С сегодняшнего дня, за каждую восстановленную ссылку мы заплатим Вам.
    Подробнее тут -> ссылка
  • Перенесем твои заслуги с другого ресурса!
    Мы понимаем как сложно прокачивать аккаунты на форумах, вроде раскачал аккаунт, а тут появляется ресурс в 100 раз круче но тоже с системой прокачки и снова качать аккаунт...
    Предлагаем вам перенести Ваши заслуги на другом подобном ресурсе к нам.
    Подробности описаны тут -> ссылка
  • Вы можете получать по 2.5% с каждой покупки и продажи на маркете! Подробности в теме Партнёрская программа
Если Вы не хотите скачивать, Вы всегда можетепосмотретьонлайн, просто нажмите кнопку ниже :

Открыть плеер

Torrent_Bot

Торрент-Бот
Бот форума
4 Окт 2016
125
65
20

Информация о фильме
Название: Хан Соло: Звёздные Войны. Истории
Оригинальное название: Solo: A Star Wars Story
Год выхода: 2018
Жанр: фантастика, фэнтези, боевик, приключения
Режиссер: Рон Ховард
В ролях: Олден Эренрайк, Йонас Суотамо, Вуди Харрельсон, Эмилия Кларк, Дональд Гловер, Тэнди Ньютон, Фиби Уоллер-Бридж, Пол Беттани, Джон Фавро, Линда Хант

О фильме:
Фильм расскажет о похождениях юного космического сорвиголовы Хана Соло и его верного напарника Чубакки и о том, как они стали самыми быстрыми пилотами и самыми хитрыми контрабандистами далёкой Галактики.



Страна: США
Студия: Lucasfilm Ltd., Walt Disney Pictures
Продолжительность: 02:14:46
Перевод: Профессиональный дублированный


Файл
Кодек: HEVC x265
Качество: BDRip-HEVC 1080p
Видео: 1920x804 (2.40:1), 5784 Кбит/сек, 0.156 бит/(Пиксели*Кадры), 23.976 (24000/1001) кадр/сек, HEVC ([email protected]@High) 10 бит
Звук:
Аудио1: Русская, AC3 640 Кбит/сек, 6 канала(ов),16bit 48,0 КГц Дублированный (лицензия)
Аудио2: English, AC3 640 Кбит/сек, 6 канала(ов),16bit 48,0 КГц
Субтитры: Русские (форсированные, полные), English
Навигация по главам: Есть

Mediainfo
General
Unique ID : 314953645047934749426238999792663496006 (0xECF1DD98900F8472FD423321B3A18546)
Complete name : T:HDFILMSStar WarsStar Wars. Spin-offSolo. A Star Wars Story (2018) BDRip-HEVC 1080p - KORSAR.mkv
Format : Matroska
Format version : Version 4 / Version 2
File size : 6.65 GiB
Duration : 2 h 14 min
Overall bit rate : 7 067 kb/s
Movie name : rip_by_Cthulhu
Encoded date : UTC 2018-09-27 17:05:40
Writing application : mkvmerge v26.0.0 ('In The Game') 64-bit
Writing library : libebml v1.3.6 + libmatroska v1.4.9
Cover : Yes
Attachments : cover.jpg

Video
ID : 1
Format : HEVC
Format/Info : High Efficiency Video Coding
Format profile : Main [email protected]@High
Codec ID : V_MPEGH/ISO/HEVC
Duration : 2 h 14 min
Bit rate : 5 784 kb/s
Width : 1 920 pixels
Height : 804 pixels
Display aspect ratio : 2.40:1
Frame rate mode : Constant
Frame rate : 23.976 (24000/1001) FPS
Color space : YUV
Chroma subsampling : 4:2:0
Bit depth : 10 bits
Bits/(Pixel*Frame) : 0.156
Stream size : 5.45 GiB (82%)
Writing library : x265 2.8+10-703eade86b53:[Windows][GCC 8.1.0][64 bit] 10bit
Encoding settings : cpuid=1176575 / frame-threads=4 / numa-pools=16 / wpp / no-pmode / no-pme / no-psnr / no-ssim / log-level=2 / input-csp=1 / input-res=1920x804 / interlace=0 / total-frames=193887 / level-idc=41 / high-tier=1 / uhd-bd=0 / ref=5 / no-allow-non-conformance / no-repeat-headers / annexb / no-aud / no-hrd / info / hash=0 / no-temporal-layers / open-gop / min-keyint=23 / keyint=240 / gop-lookahead=0 / bframes=14 / b-adapt=2 / b-pyramid / bframe-bias=0 / rc-lookahead=60 / lookahead-slices=0 / scenecut=40 / radl=0 / no-intra-refresh / ctu=32 / min-cu-size=8 / rect / amp / max-tu-size=32 / tu-inter-depth=4 / tu-intra-depth=4 / limit-tu=1 / rdoq-level=2 / dynamic-rd=0.00 / no-ssim-rd / signhide / tskip / nr-intra=0 / nr-inter=0 / no-constrained-intra / no-strong-intra-smoothing / max-merge=5 / limit-refs=2 / limit-modes / me=3 / subme=7 / merange=57 / temporal-mvp / weightp / weightb / no-analyze-src-pics / deblock=-3:-3 / no-sao / no-sao-non-deblock / rd=6 / no-early-skip / no-rskip / no-fast-intra / no-tskip-fast / no-cu-lossless / b-intra / no-splitrd-skip / rdpenalty=0 / psy-rd=2.00 / psy-rdoq=1.00 / no-rd-refine / no-lossless / cbqpoffs=0 / crqpoffs=0 / rc=crf / crf=19.0 / qcomp=0.60 / qpstep=4 / stats-write=0 / stats-read=0 / vbv-maxrate=50000 / vbv-bufsize=50000 / vbv-init=0.9 / crf-max=0.0 / crf-min=0.0 / ipratio=1.40 / pbratio=1.30 / aq-mode=2 / aq-strength=1.00 / no-cutree / zone-count=0 / no-strict-cbr / qg-size=32 / no-rc-grain / qpmax=69 / qpmin=0 / no-const-vbv / sar=1 / overscan=0 / videoformat=5 / range=0 / colorprim=1 / transfer=1 / colormatrix=1 / chromaloc=0 / display-window=0 / max-cll=0,0 / min-luma=0 / max-luma=1023 / log2-max-poc-lsb=8 / vui-timing-info / vui-hrd-info / slices=1 / no-opt-qp-pps / no-opt-ref-list-length-pps / no-multi-pass-opt-rps / scenecut-bias=0.05 / no-opt-cu-delta-qp / aq-motion / no-hdr / no-hdr-opt / no-dhdr10-opt / no-idr-recovery-sei / analysis-reuse-level=5 / scale-factor=0 / refine-intra=0 / refine-inter=0 / refine-mv=0 / no-limit-sao / ctu-info=0 / no-lowpass-dct / refine-mv-type=0 / copy-pic=1 / max-ausize-factor=1.0 / no-dynamic-refine / no-single-sei
Language : Russian
Default : Yes
Forced : No
Color range : Limited
Color primaries : BT.709
Transfer characteristics : BT.709
Matrix coefficients : BT.709

Audio #1
ID : 2
Format : AC-3
Format/Info : Audio Coding 3
Mode extension : CM (complete main)
Format settings, Endianness : Big
Codec ID : A_AC3
Duration : 2 h 14 min
Bit rate mode : Constant
Bit rate : 640 kb/s
Channel(s) : 6 channels
Channel positions : Front: L C R, Side: L R, LFE
Sampling rate : 48.0 kHz
Frame rate : 31.250 FPS (1536 spf)
Compression mode : Lossy
Stream size : 617 MiB (9%)
Language : Russian
Default : Yes
Forced : No

Audio #2
ID : 3
Format : AC-3
Format/Info : Audio Coding 3
Mode extension : CM (complete main)
Format settings, Endianness : Big
Codec ID : A_AC3
Duration : 2 h 14 min
Bit rate mode : Constant
Bit rate : 640 kb/s
Channel(s) : 6 channels
Channel positions : Front: L C R, Side: L R, LFE
Sampling rate : 48.0 kHz
Frame rate : 31.250 FPS (1536 spf)
Compression mode : Lossy
Stream size : 617 MiB (9%)
Title : Оригинал
Language : English
Default : No
Forced : No

Text #1
ID : 4
Format : UTF-8
Codec ID : S_TEXT/UTF8
Codec ID/Info : UTF-8 Plain Text
Duration : 1 h 17 min
Bit rate : 0 b/s
Count of elements : 16
Stream size : 479 Bytes (0%)
Title : Forced
Language : Russian
Default : Yes
Forced : No

Text #2
ID : 5
Format : UTF-8
Codec ID : S_TEXT/UTF8
Codec ID/Info : UTF-8 Plain Text
Duration : 2 h 6 min
Bit rate : 69 b/s
Count of elements : 1824
Stream size : 64.1 KiB (0%)
Title : full
Language : Russian
Default : No
Forced : No

Text #3
ID : 6
Format : UTF-8
Codec ID : S_TEXT/UTF8
Codec ID/Info : UTF-8 Plain Text
Duration : 2 h 5 min
Bit rate : 56 b/s
Count of elements : 1958
Stream size : 51.9 KiB (0%)
Title : full
Language : English
Default : No
Forced : No

Menu
00:00:00.000 : en:Chapter 01
00:00:53.845 : en:Chapter 02
00:02:10.213 : en:Chapter 03
00:03:53.149 : en:Chapter 04
00:06:00.485 : en:Chapter 05
00:09:27.566 : en:Chapter 06
00:13:16.045 : en:Chapter 07
00:14:14.019 : en:Chapter 08
00:16:12.262 : en:Chapter 09
00:19:45.100 : en:Chapter 10
00:22:43.820 : en:Chapter 11
00:24:37.267 : en:Chapter 12
00:27:00.035 : en:Chapter 13
00:30:02.926 : en:Chapter 14
00:32:54.681 : en:Chapter 15
00:39:09.764 : en:Chapter 16
00:41:59.225 : en:Chapter 17
00:43:20.180 : en:Chapter 18
00:44:32.127 : en:Chapter 19
00:48:03.755 : en:Chapter 20
00:51:58.323 : en:Chapter 21
00:53:17.527 : en:Chapter 22
00:57:23.523 : en:Chapter 23
01:00:16.779 : en:Chapter 24
01:02:40.882 : en:Chapter 25
01:04:51.262 : en:Chapter 26
01:05:29.508 : en:Chapter 27
01:07:12.027 : en:Chapter 28
01:08:05.915 : en:Chapter 29
01:10:00.112 : en:Chapter 30
01:12:44.193 : en:Chapter 31
01:14:40.851 : en:Chapter 32
01:18:30.872 : en:Chapter 33
01:23:15.740 : en:Chapter 34
01:26:32.645 : en:Chapter 35
01:30:33.136 : en:Chapter 36
01:35:19.672 : en:Chapter 37
01:37:04.860 : en:Chapter 38
01:38:52.801 : en:Chapter 39
01:41:18.530 : en:Chapter 40
01:43:02.676 : en:Chapter 41
01:45:27.821 : en:Chapter 42
01:46:32.177 : en:Chapter 43
01:49:45.996 : en:Chapter 44
01:53:33.890 : en:Chapter 45
01:57:13.901 : en:Chapter 46
01:58:55.127 : en:Chapter 47
02:01:34.829 : en:Chapter 48
02:03:20.893 : en:Chapter 49
02:06:09.353 : en:Chapter 50
02:14:46.453 : en:Chapter 51
Скриншоты


Релиз от: Cthulhu
 

Вложения

  • 34,2 KB Просмотры: 1
    Личеров 0
    Сидеров 0
    Файлов 1
    Объем 6,7 GB
Ваш e-mail не будет опубликован. Он потребуется для подтверждения Вашего поста.
Оформление текста Нажмите «Ввод», чтобы отправить ответ.