За сегодня опубликовано 14 новых материалов.
Инструкция новичку Путеводитель по форуму Прокси для Telegram Показать подсказки , это бомба!

Скачать Воскресший / The Resurrected (1991) BDRip 720p | P, P2, A бесплатно через торрент

  • Получай до 480 рублей за каждого приглашенного пользователя!
    представляем Вам очередное расширение партнерской программы, подробности описаны тут -> ссылка
  • 90% материалов доступно к скачиванию после простой регистрации!
    Если же ты хочешь скачивать материалы без требования оставлять отзывы то получи группу "Новичок", 10 способов повышения описаны тут -> ссылка
  • К сожалению количество битых ссылок растет и мы уже не можем их оперативно восстанавливать поэтому просим помощи у каждого нашего пользователя.
    С сегодняшнего дня, за каждую восстановленную ссылку мы заплатим Вам.
    Подробнее тут -> ссылка
  • Перенесем твои заслуги с другого ресурса!
    Мы понимаем как сложно прокачивать аккаунты на форумах, вроде раскачал аккаунт, а тут появляется ресурс в 100 раз круче но тоже с системой прокачки и снова качать аккаунт...
    Предлагаем вам перенести Ваши заслуги на другом подобном ресурсе к нам.
    Подробности описаны тут -> ссылка
  • Вы можете получать по 2.5% с каждой покупки и продажи на маркете! Подробности в теме Партнёрская программа
Если Вы не хотите скачивать, Вы всегда можете посмотреть онлайн, просто нажмите кнопку ниже :

Открыть плеер

Torrent_Bot

Торрент-Бот
Бот форума
4 Окт 2016
125
31
20



Информация о фильме
Название: Воскресший
Оригинальное название: The Resurrected
Год выхода: 1991
Жанр: ужасы, фэнтези
Режиссер: Дэн О’Бэннон
В ролях: Джон Терри, Джейн Сиббетт, Крис Сарандон, Роберт Романус, Лори Бриско, Кен Камру, Патрик Пон, Бернард Куффлинг, Дж.Б. Бивенс, Роберт Сидлей

О фильме:
Женщина обращается к частному детективу с просьбой помочь ее мужу, который занимается странными опытами, связанными с трупами. В ходе расследования выясняется, что место ее мужа уже занял колдун черной магии, умерщвленный в 18 веке. Он оставил дневники и записки, руководствуясь которыми муж несчастной женщины воскресил его из мертвых. И теперь для утоления голода ему необходимы живые кровь и плоть…



Страна: Канада, США
Продолжительность: 01:45:32
Перевод: Профессиональный многоголосый, профессиональный двухголосый, авторский

Файл
Качество: BDRip 720p
Видео: MPEG-4 AVC, 8300 Kbps, 1280x690
Аудио 1: Russian; AC3; 48.0 KHz; 2ch; 192 Kbps || MVO CTC
Аудио 2: Russian; AC3; 48.0 KHz; 2ch; 192 Kbps || DVO HTB+
Аудио 3: Russian; AC3; 48.0 KHz; 2ch; 192 Kbps || AVO Юрий Сербин
Аудио 4: Russian; AC3; 48.0 KHz; 2ch; 192 Kbps || AVO Александр Марченко
Аудио 5: English; AC3; 48.0 KHz; 2ch; 224 Kbps || Original
Аудио 6: English; AC3; 48.0 KHz; 2ch; 448 Kbps || Commentary with producers Mark Borde and Kenneth Raich, screenwriter Brent V. Friedman, etc.
Субтитры: английские

Автор релиза: GoldDust

Скриншоты
MediaInfo
General
Unique ID : 212959580579442399981227660349039929904 (0xA03685F82EA3054E36196C2FB98B6A30)
Complete name : G:nripsThe.Resurrected.1991.BDRip.720p.mkv
Format : Matroska
Format version : Version 4
File size : 7.18 GiB
Duration : 1 h 45 min
Overall bit rate : 9 739 kb/s
Encoded date : UTC 2018-12-09 01:49:13
Writing application : mkvmerge v25.0.0 ('Prog Noir') 64-bit
Writing library : libebml v1.3.6 + libmatroska v1.4.9

Video
ID : 1
Format : AVC
Format/Info : Advanced Video Codec
Format profile : [email protected]
Format settings : CABAC / 9 Ref Frames
Format settings, CABAC : Yes
Format settings, RefFrames : 9 frames
Codec ID : V_MPEG4/ISO/AVC
Duration : 1 h 45 min
Bit rate : 8 300 kb/s
Width : 1 280 pixels
Height : 690 pixels
Display aspect ratio : 1.85:1
Frame rate mode : Constant
Frame rate : 23.976 (24000/1001) FPS
Color space : YUV
Chroma subsampling : 4:2:0
Bit depth : 8 bits
Scan type : Progressive
Bits/(Pixel*Frame) : 0.392
Stream size : 6.12 GiB (85%)
Title : The.Resurrected.1991.BDRip.720p.x264-MM
Writing library : x264 core 157 r2935 545de2f
Encoding settings : cabac=1 / ref=9 / deblock=1:-3:-3 / analyse=0x3:0x133 / me=umh / subme=11 / psy=1 / psy_rd=1.01:0.00 / mixed_ref=1 / me_range=48 / chroma_me=1 / trellis=2 / 8x8dct=1 / cqm=0 / deadzone=21,11 / fast_pskip=0 / chroma_qp_offset=-2 / threads=12 / lookahead_threads=3 / sliced_threads=0 / nr=0 / decimate=0 / interlaced=0 / bluray_compat=0 / constrained_intra=0 / bframes=12 / b_pyramid=2 / b_adapt=2 / b_bias=0 / direct=3 / weightb=1 / open_gop=1 / weightp=2 / keyint=250 / keyint_min=23 / scenecut=40 / intra_refresh=0 / rc_lookahead=60 / rc=2pass / mbtree=0 / bitrate=8300 / ratetol=1.0 / qcomp=0.60 / qpmin=0 / qpmax=69 / qpstep=4 / cplxblur=20.0 / qblur=0.5 / vbv_maxrate=50000 / vbv_bufsize=62500 / nal_hrd=none / filler=0 / ip_ratio=1.40 / pb_ratio=1.30 / aq=1:1.10
Language : English
Default : Yes
Forced : No

Audio #1
ID : 2
Format : AC-3
Format/Info : Audio Coding 3
Commercial name : Dolby Digital
Codec ID : A_AC3
Duration : 1 h 45 min
Bit rate mode : Constant
Bit rate : 192 kb/s
Channel(s) : 2 channels
Channel layout : L R
Sampling rate : 48.0 kHz
Frame rate : 31.250 FPS (1536 SPF)
Bit depth : 16 bits
Compression mode : Lossy
Stream size : 145 MiB (2%)
Title : MVO CTC
Language : Russian
Service kind : Complete Main
Default : Yes
Forced : No

Audio #2
ID : 3
Format : AC-3
Format/Info : Audio Coding 3
Commercial name : Dolby Digital
Codec ID : A_AC3
Duration : 1 h 45 min
Bit rate mode : Constant
Bit rate : 192 kb/s
Channel(s) : 2 channels
Channel layout : L R
Sampling rate : 48.0 kHz
Frame rate : 31.250 FPS (1536 SPF)
Bit depth : 16 bits
Compression mode : Lossy
Stream size : 145 MiB (2%)
Title : DVO HTB+
Language : Russian
Service kind : Complete Main
Default : No
Forced : No

Audio #3
ID : 4
Format : AC-3
Format/Info : Audio Coding 3
Commercial name : Dolby Digital
Codec ID : A_AC3
Duration : 1 h 45 min
Bit rate mode : Constant
Bit rate : 192 kb/s
Channel(s) : 2 channels
Channel layout : L R
Sampling rate : 48.0 kHz
Frame rate : 31.250 FPS (1536 SPF)
Bit depth : 16 bits
Compression mode : Lossy
Stream size : 145 MiB (2%)
Title : AVO Юрий Сербин
Language : Russian
Service kind : Complete Main
Default : No
Forced : No

Audio #4
ID : 5
Format : AC-3
Format/Info : Audio Coding 3
Commercial name : Dolby Digital
Codec ID : A_AC3
Duration : 1 h 45 min
Bit rate mode : Constant
Bit rate : 192 kb/s
Channel(s) : 2 channels
Channel layout : L R
Sampling rate : 48.0 kHz
Frame rate : 31.250 FPS (1536 SPF)
Bit depth : 16 bits
Compression mode : Lossy
Stream size : 145 MiB (2%)
Title : AVO Александр Марченко
Language : Russian
Service kind : Complete Main
Default : No
Forced : No

Audio #5
ID : 6
Format : AC-3
Format/Info : Audio Coding 3
Commercial name : Dolby Digital
Codec ID : A_AC3
Duration : 1 h 45 min
Bit rate mode : Constant
Bit rate : 224 kb/s
Channel(s) : 2 channels
Channel layout : L R
Sampling rate : 48.0 kHz
Frame rate : 31.250 FPS (1536 SPF)
Bit depth : 16 bits
Compression mode : Lossy
Stream size : 169 MiB (2%)
Title : Original
Language : English
Service kind : Complete Main
Default : No
Forced : No

Audio #6
ID : 7
Format : AC-3
Format/Info : Audio Coding 3
Commercial name : Dolby Digital
Codec ID : A_AC3
Duration : 1 h 45 min
Bit rate mode : Constant
Bit rate : 448 kb/s
Channel(s) : 2 channels
Channel layout : L R
Sampling rate : 48.0 kHz
Frame rate : 31.250 FPS (1536 SPF)
Bit depth : 16 bits
Compression mode : Lossy
Stream size : 338 MiB (5%)
Title : Commentary with producers Mark Borde and Kenneth Raich, screenwriter Brent V. Friedman, actor Richard Romanus and make-up effects artist Todd Masters / Dolby Digital Audio / 2.0 / 48 kHz / 448 kbps / 16-bit
Language : English
Service kind : Complete Main
Default : No
Forced : No

Text
ID : 8
Format : UTF-8
Codec ID : S_TEXT/UTF8
Codec ID/Info : UTF-8 Plain Text
Duration : 1 h 38 min
Bit rate : 43 b/s
Count of elements : 1106
Stream size : 31.5 KiB (0%)
Language : English
Default : No
Forced : No

Menu
00:00:00.000 : en:Chapter 1
00:04:46.369 : en:Chapter 2
00:12:33.127 : en:Chapter 3
00:20:20.636 : en:Chapter 4
00:30:41.506 : en:Chapter 5
00:40:28.635 : en:Chapter 6
00:51:35.801 : en:Chapter 7
01:00:54.192 : en:Chapter 8
01:09:44.597 : en:Chapter 9
01:18:29.163 : en:Chapter 10
01:27:09.683 : en:Chapter 11
01:41:22.868 : en:Chapter 12
 

Вложения

  • 144,5 KB Просмотры: 0
    Личеров 0
    Сидеров 0
    Файлов 1
    Объем 7,2 GB
Ваш e-mail не будет опубликован. Он потребуется для подтверждения Вашего поста.
Оформление текста Нажмите «Ввод», чтобы отправить ответ.