За сегодня опубликовано 16 новых материалов.
Инструкция новичку Путеводитель по форуму Прокси для Telegram Показать подсказки , это бомба!

Скачать Волк с Уолл-стрит / The Wolf of Wall Street (2013) BDRip 720p от NNNB | D, A бесплатно через торрент

  • Получай до 480 рублей за каждого приглашенного пользователя!
    представляем Вам очередное расширение партнерской программы, подробности описаны тут -> ссылка
  • 90% материалов доступно к скачиванию после простой регистрации!
    Если же ты хочешь скачивать материалы без требования оставлять отзывы то получи группу "Новичок", 10 способов повышения описаны тут -> ссылка
  • К сожалению количество битых ссылок растет и мы уже не можем их оперативно восстанавливать поэтому просим помощи у каждого нашего пользователя.
    С сегодняшнего дня, за каждую восстановленную ссылку мы заплатим Вам.
    Подробнее тут -> ссылка
  • Перенесем твои заслуги с другого ресурса!
    Мы понимаем как сложно прокачивать аккаунты на форумах, вроде раскачал аккаунт, а тут появляется ресурс в 100 раз круче но тоже с системой прокачки и снова качать аккаунт...
    Предлагаем вам перенести Ваши заслуги на другом подобном ресурсе к нам.
    Подробности описаны тут -> ссылка
  • Вы можете получать по 2.5% с каждой покупки и продажи на маркете! Подробности в теме Партнёрская программа
Если Вы не хотите скачивать, Вы всегда можете посмотреть онлайн, просто нажмите кнопку ниже :

Открыть плеер

Torrent_Bot

Торрент-Бот
Бот форума
4 Окт 2016
125
32
20



Информацияофильме
Русское название: Волк с Уолл-стрит
Оригинальное название: The Wolf of Wall Street
Год выхода: 2013
Жанр: Драма, комедия, криминал, биография
Режиссер: Мартин Скорсезе
Выпущено: США
Продолжительность: 02:59:52
Перевод: Дублированный, Авторский (С.Визгунов), Авторский (Ю.Немахов)
В ролях: Леонардо ДиКаприо, Джона Хилл, Марго Робби, Кайл Чандлер, Роб Райнер, П.Дж. Бирн, Джон Бернтал, Кристин Милиоти, Жан Дюжарден, Мэттью МакКонахи


Сюжетфильма
1987 год. Джордан Белфорт становится брокером в успешном инвестиционном банке. Вскоре банк закрывается после внезапного обвала индекса Доу-Джонса. По совету жены Терезы Джордан устраивается в небольшое заведение, занимающееся мелкими акциями. Его настойчивый стиль общения с клиентами и врождённая харизма быстро даёт свои плоды. Он знакомится с соседом по дому Донни, торговцем, который сразу находит общий язык с Джорданом и решает открыть с ним собственную фирму. В качестве сотрудников они нанимают нескольких друзей Белфорта, его отца Макса и называют компанию «Стрэттон Оукмонт». В свободное от работы время Джордан прожигает жизнь: лавирует от одной вечеринки к другой, вступает в сексуальные отношения с проститутками, употребляет множество наркотических препаратов, в том числе кокаин и кваалюд. Однажды наступает момент, когда быстрым обогащением Белфорта начинает интересоваться агент ФБР.


Файл
Качество: BDRip 720p (исходник Blu-ray Disc)
Видео: 1280x534, 4378 Кбит/сек, 23,976 кадр/сек, AVC, x264, [email protected], 2.40:1, 0.267 Бит/[Пиксели*Кадры]
Аудио 1: AC-3, 448 Кбит/сек, 6 канала(ов), 48,0 КГц - Дублированный / Русский
Аудио 2: AC-3, 448 Кбит/сек, 6 канала(ов), 48,0 КГц - Одноголосый закадровый, С.Визгунов / Русский
Аудио 3: AC-3, 448 Кбит/сек, 6 канала(ов), 48,0 КГц - Одноголосый закадровый, Ю.Немахов / Русский
Аудио 4: AC-3, 448 Кбит/сек, 6 канала(ов), 48,0 КГц - Оригинал / Английский
Субтитры: Русские* | Полные, Английские | Полные
Чаптеры (Главы): Есть


Автор Рипа:

Скриншоты
MediaInfo
Format : Matroska
Format version : Version 2
File size : 7.75 GiB
Duration : 2h 59mn
Overall bit rate : 6 171 Kbps
Movie name : Волк с Уолл-стрит.(2013).BDRip.720p.[envy]
Encoded date : UTC 2014-06-07 08:14:41
Writing application : mkvmerge v5.8.0 ('No Sleep / Pillow') built on Sep 2 2012 15:37:04
Writing library : libebml v1.2.3 + libmatroska v1.3.0

Video
ID : 1
Format : AVC
Format/Info : Advanced Video Codec
Format profile : [email protected]
Format settings, CABAC : Yes
Format settings, ReFrames : 11 frames
Codec ID : V_MPEG4/ISO/AVC
Duration : 2h 59mn
Bit rate : 4 378 Kbps
Width : 1 280 pixels
Height : 534 pixels
Display aspect ratio : 2.40:1
Frame rate mode : Constant
Frame rate : 23.976 fps
Color space : YUV
Chroma subsampling : 4:2:0
Bit depth : 8 bits
Scan type : Progressive
Bits/(Pixel*Frame) : 0.267
Stream size : 5.35 GiB (69%)
Title : Волк с Уолл-стрит.(2013).BDRip.720p.[envy]
Writing library : x264 core 142 r2431 ac76440
Encoding settings : cabac=1 / ref=11 / deblock=1:-3:-1 / analyse=0x3:0x133 / me=umh / subme=11 / psy=1 / psy_rd=1.00:0.00 / mixed_ref=1 / me_range=48 / chroma_me=1 / trellis=2 / 8x8dct=1 / cqm=0 / deadzone=21,11 / fast_pskip=0 / chroma_qp_offset=-2 / threads=12 / lookahead_threads=2 / sliced_threads=0 / nr=0 / decimate=1 / interlaced=0 / bluray_compat=0 / constrained_intra=0 / bframes=7 / b_pyramid=2 / b_adapt=2 / b_bias=0 / direct=3 / weightb=1 / open_gop=0 / weightp=2 / keyint=240 / keyint_min=23 / scenecut=40 / intra_refresh=0 / rc=2pass / mbtree=0 / bitrate=4378 / ratetol=2.0 / qcomp=0.60 / qpmin=0 / qpmax=69 / qpstep=4 / cplxblur=20.0 / qblur=0.5 / ip_ratio=1.40 / pb_ratio=1.30 / aq=2:1.00
Language : English
Default : Yes
Forced : No

Audio #1
ID : 2
Format : AC-3
Format/Info : Audio Coding 3
Mode extension : CM (complete main)
Format settings, Endianness : Big
Codec ID : A_AC3
Duration : 2h 59mn
Bit rate mode : Constant
Bit rate : 448 Kbps
Channel count : 6 channels
Channel positions : Front: L C R, Side: L R, LFE
Sampling rate : 48.0 KHz
Bit depth : 16 bits
Compression mode : Lossy
Stream size : 576 MiB (7%)
Title : Dub
Language : Russian
Default : Yes
Forced : No

Audio #2
ID : 3
Format : AC-3
Format/Info : Audio Coding 3
Mode extension : CM (complete main)
Format settings, Endianness : Big
Codec ID : A_AC3
Duration : 2h 59mn
Bit rate mode : Constant
Bit rate : 448 Kbps
Channel count : 6 channels
Channel positions : Front: L C R, Side: L R, LFE
Sampling rate : 48.0 KHz
Bit depth : 16 bits
Compression mode : Lossy
Stream size : 576 MiB (7%)
Title : Vizgunov
Language : Russian
Default : No
Forced : No

Audio #3
ID : 4
Format : AC-3
Format/Info : Audio Coding 3
Mode extension : CM (complete main)
Format settings, Endianness : Big
Codec ID : A_AC3
Duration : 2h 59mn
Bit rate mode : Constant
Bit rate : 448 Kbps
Channel count : 6 channels
Channel positions : Front: L C R, Side: L R, LFE
Sampling rate : 48.0 KHz
Bit depth : 16 bits
Compression mode : Lossy
Stream size : 576 MiB (7%)
Title : Nemahov
Language : Russian
Default : No
Forced : No

Audio #4
ID : 5
Format : AC-3
Format/Info : Audio Coding 3
Mode extension : CM (complete main)
Format settings, Endianness : Big
Codec ID : A_AC3
Duration : 2h 59mn
Bit rate mode : Constant
Bit rate : 448 Kbps
Channel count : 6 channels
Channel positions : Front: L C R, Side: L R, LFE
Sampling rate : 48.0 KHz
Bit depth : 16 bits
Compression mode : Lossy
Stream size : 576 MiB (7%)
Title : Eng
Language : English
Default : No
Forced : No

Text #1
ID : 6
Format : UTF-8
Codec ID : S_TEXT/UTF8
Codec ID/Info : UTF-8 Plain Text
Title : full
Language : Russian
Default : No
Forced : No

Text #2
ID : 7
Format : UTF-8
Codec ID : S_TEXT/UTF8
Codec ID/Info : UTF-8 Plain Text
Title : full
Language : English
Default : No
Forced : No

Menu
00:00:00.000 : :Chapter 01
00:07:55.932 : :Chapter 02
00:14:17.855 : :Chapter 03
00:21:31.413 : :Chapter 04
00:32:08.092 : :Chapter 05
00:40:14.494 : :Chapter 06
00:48:33.577 : :Chapter 07
00:55:21.775 : :Chapter 08
01:01:56.045 : :Chapter 09
01:07:00.474 : :Chapter 10
01:11:28.908 : :Chapter 11
01:19:49.868 : :Chapter 12
01:29:06.881 : :Chapter 13
01:37:47.403 : :Chapter 14
01:45:11.930 : :Chapter 15
01:54:39.997 : :Chapter 16
02:03:20.184 : :Chapter 17
02:07:28.015 : :Chapter 18
02:17:12.849 : :Chapter 19
02:25:25.466 : :Chapter 20
02:32:08.619 : :Chapter 21
02:36:38.720 : :Chapter 22
02:44:19.263 : :Chapter 23
02:53:04.290 : :Chapter 24
Доп.инфо
* - Присутствуют нецензурные выражения.
За перевод Сергея Визгунова спасибо пользователям форума e180:
foxlight, xerman13, tide, Andrey_Tula, Loki1982, zeleniy, Savely, uchitel538, luka69, safreks, Nick, dir, GaryH, v1111o, MyxAmoP, ZeDOK, Skoped, markinscor, STONECOLD, phaeton77, masta, Pro_Rock.
Работа со звуком: rammzez.

За перевод Юрия Немахова спасибо пользователям форума e180:
foxlight, oleg-k, axl-dr, Loki1982, zeleniy, xerman13, kRIPtograf, anton966, Savely, Andrey_Tula, vik19662007, luka69, ANISKIN50, safreks, Nadoelo, Foots, 2vova2, kiruxa-k, carnivale, Pumamen, пуля, DMX-92, Chistobaev, GKillah, semargl, kabukiman, tide, Slimka, dvd100, Valen, GaryH, Марлон, denus, rammzez, Некрасов, v1111o, MyxAmoP, ZeDOK, Skazhutin, saigons, ARTYq, STONECOLD, masta.
Работа со звуком: Bloodymetal.
 

Вложения

  • 39,8 KB Просмотры: 0
    Личеров 0
    Сидеров 0
    Файлов 1
    Объем 7,8 GB
Ваш e-mail не будет опубликован. Он потребуется для подтверждения Вашего поста.
Оформление текста Нажмите «Ввод», чтобы отправить ответ.