Инструкция новичку Путеводитель по форуму Прокси для Telegram Показать подсказки , это бомба!

Скачать Водитель для Веры (2004) WEBRip 720p от KORSAR бесплатно через торрент

Если Вы не хотите скачивать, Вы всегда можете посмотреть онлайн, просто нажмите кнопку ниже :

Открыть плеер

Torrent_Bot

Торрент-Бот
Бот форума
4 Окт 2016
98
12
Жанр: Детектив, драма
Год выпуска: 2004
Страна: Россия
Продолжительность: 01:50:41
Режиссёр: Павел Чухрай
В ролях: Игорь Петренко, Алена Бабенко, Богдан Ступка, Андрей Панин, Екатерина Юдина, Марина Голуб

Описание: На даче генерала появляется новый водитель. Виктору суждено перевернуть судьбы всех обитателей большого дома. Горничная Лида откровенно добивается его. Дочь генерала Вера надменна с водителем, и вскоре – безоглядно влюбляется в него. Генеральский адъютант плетет интриги, вовлекая новичка. Но любовь Веры и Виктора, его блестящая карьера, жизни многих людей - все становится разменной монетой в чьей-то большой игре. И когда придет час расплаты, готовы ли будут герои бороться за свою любовь? Смогут ли они наперекор всему сохранить свою честь незапятнанной?

Релиз от:

Кодек: х264
Качество: WEBRip 720p
Видео: MPEG-4 AVC, 1214x720, 25 fps, 7749 Кбит/с
Звук: AC3, 2 ch, 192 Кбит/с
Субтитры: Русские, английские



Инфо файл

  • x264 [info]: frame I:1140 Avg QP:18.74 size:163650
    x264 [info]: frame P:39330 Avg QP:20.22 size: 83136
    x264 [info]: frame B:125575 Avg QP:22.62 size: 24757
    x264 [info]: consecutive B-frames: 2.4% 3.2% 7.1% 33.3% 20.9% 31.5% 0.9% 0.3% 0.2% 0.2%
Общее
Уникальный идентификатор : 173925022434203430847769398388084084271 (0x82D8BDAA355F7973952E9D482C1E8E2F)
Полное имя : D:Водитель для Веры_2004-WEBRip 720p_KORSAR.mkv
Формат : Matroska
Версия формата : Version 2
Размер файла : 6,26 Гбайт
Продолжительность : 1 ч. 50 м.
Общий поток : 8102 Кбит/сек
Название фильма : Водитель для Веры_2004-WEBRip 720p_KORSAR
Дата кодирования : UTC 2018-06-30 17:05:29
Программа кодирования : mkvmerge v5.8.0 ('No Sleep / Pillow') built on Sep 2 2012 15:37:04
Библиотека кодирования : libebml v1.2.3 + libmatroska v1.3.0

Видео
Идентификатор : 1
Формат : AVC
Формат/Информация : Advanced Video Codec
Профиль формата : [email protected]
Параметр CABAC формата : Да
Параметр RefFrames формата : 9 кадров
Идентификатор кодека : V_MPEG4/ISO/AVC
Продолжительность : 1 ч. 50 м.
Битрейт : 7749 Кбит/сек
Ширина : 1214 пикселей
Высота : 720 пикселей
Соотношение сторон : 5:3
Режим частоты кадров : Постоянный
Частота кадров : 25,000 кадров/сек
Цветовое пространство : YUV
Субдискретизация насыщенности : 4:2:0
Битовая глубина : 8 бит
Тип развёртки : Прогрессивная
Бит/(Пиксели*Кадры) : 0.355
Размер потока : 5,99 Гбайт (96%)
Библиотека кодирования : x264 core 152 r2851kMod ba24899
Настройки программы : cabac=1 / ref=9 / deblock=1:-2:-2 / analyse=0x3:0x113 / me=umh / subme=10 / psy=1 / fade_compensate=0.00 / psy_rd=1.05:0.10 / mixed_ref=1 / me_range=40 / chroma_me=1 / trellis=2 / 8x8dct=1 / cqm=0 / deadzone=21,11 / fast_pskip=1 / chroma_qp_offset=-3 / threads=12 / lookahead_threads=2 / sliced_threads=0 / nr=0 / decimate=1 / interlaced=0 / bluray_compat=0 / constrained_intra=0 / bframes=9 / b_pyramid=2 / b_adapt=2 / b_bias=0 / direct=1 / weightb=1 / open_gop=0 / weightp=2 / keyint=250 / keyint_min=25 / scenecut=40 / intra_refresh=0 / rc=crf / mbtree=0 / crf=17.7000 / qcomp=0.63 / qpmin=0 / qpmax=39 / qpstep=4 / ip_ratio=1.40 / pb_ratio=1.30 / aq=2:0.80
Язык : English
Default : Да
Forced : Нет
Цветовой диапазон : Limited
Основные цвета : BT.709
Характеристики трансфера : BT.709
Коэффициенты матрицы : BT.709

Аудио
Идентификатор : 2
Формат : AC-3
Формат/Информация : Audio Coding 3
Параметр Endianness формата : Big
Идентификатор кодека : A_AC3
Продолжительность : 1 ч. 50 м.
Вид битрейта : Постоянный
Битрейт : 192 Кбит/сек
Каналы : 2 канала
Расположение каналов : Front: L R
Частота : 48,0 КГц
Частота кадров : 31,250 кадров/сек (1536 SPF)
Битовая глубина : 16 бит
Метод сжатия : С потерями
Размер потока : 152 Мбайт (2%)
Язык : Russian
Default : Да
Forced : Нет

Текст #1
Идентификатор : 3
Формат : UTF-8
Идентификатор кодека : S_TEXT/UTF8
Идентификатор кодека/Информация : UTF-8 Plain Text
Язык : Russian
Default : Нет
Forced : Нет

Текст #2
Идентификатор : 4
Формат : UTF-8
Идентификатор кодека : S_TEXT/UTF8
Идентификатор кодека/Информация : UTF-8 Plain Text
Язык : English
Default : Нет
Forced : Нет

Меню
00:00:00.000 : en:Chapter 1
00:01:55.200 : en:Chapter 2
00:07:49.200 : en:Chapter 3
00:13:37.200 : en:Chapter 4
00:18:10.200 : en:Chapter 5
00:21:17.400 : en:Chapter 6
00:28:31.200 : en:Chapter 7
00:35:09.000 : en:Chapter 8
00:40:39.000 : en:Chapter 9
00:45:04.200 : en:Chapter 10
00:51:55.200 : en:Chapter 11
00:59:43.200 : en:Chapter 12
01:06:24.000 : en:Chapter 13
01:15:13.200 : en:Chapter 14
01:20:52.200 : en:Chapter 15
01:25:48.000 : en:Chapter 16
01:35:58.200 : en:Chapter 17
01:40:52.200 : en:Chapter 18
01:45:18.000 : en:Chapter 19
01:47:22.200 : en:Chapter 20
01:50:40.800 : en:Chapter 21
 

Вложения

  • 32,3 KB Просмотры: 0
    Личеров 0
    Сидеров 0
    Файлов 1
    Объем 6,3 GB
Ваш e-mail не будет опубликован. Он потребуется для подтверждения Вашего поста.
Оформление текста Нажмите «Ввод», чтобы отправить ответ.

Привет!

Мы группа людей которые решили помочь другим в решении их проблем, а так же пользователям с поиском самых свежих и качественных инфопродуктов. За 4 с небольшим месяца мы создали этот форум на который заходят ежедневно тысячи человек и посещаемость постоянно растёт. Мы создали панель лицензирования для защиты PHP скриптов от воровства и SEO панель для мониторинга наших сайтов и выбора верной стратегии их развития. Мы надеемся что то что мы создали пригодится Вам и возможно Вы поможете нам развиваться и совершенствоваться вместе с Вами.

Статистика форума

Темы
337.509
Сообщения
359.853
Пользователи
25.431
Новый пользователь
NikaNika976

Приложения форума для iOS и Android


У ркн там нет власти ;)
Гостевуха
Помощь Пользователи
  • Captain @ Captain:
    @mizaider, ты там живой?
    Цитата
  • K Chat Bot:
    Гость kkifkaa присоединился к комнате.
  • K (Гость) kkifkaa:
    Всем привет!
    Цитата
  • K (Гость) kkifkaa:
    mizaider тут есть?
    Цитата
  • K Chat Bot:
    Гость kkifkaa присоединился к комнате.
  • K (Гость) kkifkaa:
    Здравствуйте уважаемые члены форума. Подскажите пож-та, что можно сделать если я был заблокирован якобы за: «Вы были заблокированы по следующей причине: Копирование материалов на другие ресурсы». Самое страшное, то что тебя обвиняют и не дают возможность пообщаться и разобраться в причинах. Кстати в такой ситуации может быть каждый из нас. Вот так стараешься размещаешь тут материал, а тебя без разбирательств в бан. И нет возможности обратится в тех поддержку т.к. твой аккаут заблокирован. Подскажите пож-та, как можно связаться с администрацией, чтобы была проведена проверка? Сейчас я новичок и как раз в этот день для нас заливал на форум новые курсы (один залил, второй не успел). Я сначала подумал, что какой-то запрещений материал разместил, а потом понял, что меня обвинили в том, что я не делал.
    Цитата
  • K (Гость) kkifkaa:
    mizaider ты здесь помоги пожалуйста!
    Цитата
  • mizaider @ mizaider:
    Вопрос решен.
    Цитата
  • goodness @ goodness:
    Добрый вечер уважаемые форумчане!)
    Цитата
  • goodness @ goodness:
    Вопрос к администрации: Имеется одна точка доступа wifi на квартиру, вашим форумом пользуюсь пока что только я, но хотел бы зарегистрировать и свою девушку,
    Цитата
  • goodness @ goodness:
    система нас не забанит из-за того что мы с одной точки доступа но с разных устройств?
    Цитата
  • mizaider @ mizaider:
    Не забанит
    Цитата
  • Captain @ Captain:
    Батя в здание
    Цитата
  • 13SASHA13 @ 13SASHA13:
    Цитата
  • Uggi Chat Bot:
    Uggi покинул(а) комнату.
  • M Chat Bot:
    mr_robot_i2p покинул(а) комнату.
  • Captain @ Captain:
    Батя в здание
    Цитата
  • J Chat Bot:
    joker567 покинул(а) комнату.
    J Chat Bot: joker567 покинул(а) комнату.