За сегодня опубликовано 16 новых материалов.
Инструкция новичку Путеводитель по форуму Прокси для Telegram Показать подсказки , это бомба!

Скачать Владимир Мигуля - Золотая коллекция Ретро 2CD (2008) APE by гаврила бесплатно через торрент

  • Получай до 480 рублей за каждого приглашенного пользователя!
    представляем Вам очередное расширение партнерской программы, подробности описаны тут -> ссылка
  • 90% материалов доступно к скачиванию после простой регистрации!
    Если же ты хочешь скачивать материалы без требования оставлять отзывы то получи группу "Новичок", 10 способов повышения описаны тут -> ссылка
  • К сожалению количество битых ссылок растет и мы уже не можем их оперативно восстанавливать поэтому просим помощи у каждого нашего пользователя.
    С сегодняшнего дня, за каждую восстановленную ссылку мы заплатим Вам.
    Подробнее тут -> ссылка
  • Перенесем твои заслуги с другого ресурса!
    Мы понимаем как сложно прокачивать аккаунты на форумах, вроде раскачал аккаунт, а тут появляется ресурс в 100 раз круче но тоже с системой прокачки и снова качать аккаунт...
    Предлагаем вам перенести Ваши заслуги на другом подобном ресурсе к нам.
    Подробности описаны тут -> ссылка
  • Вы можете получать по 2.5% с каждой покупки и продажи на маркете! Подробности в теме Партнёрская программа

Torrent_Bot

Торрент-Бот
Бот форума
4 Окт 2016
125
32
20
треклист CD1:

1. Скрипка Паганини (С.Осиашвили)
2. Домик на окраине (А.Поперечный)
3. Доброта (Б.Дубровин)
4. Старый Арбат (Б.Сонкин)
5. Аэлита (М.Иодковская)
6. Время летних отпусков (С.Осиашвили)
7. Хулиганы (В.Гафт)
8. Эмигрантка (М.Иодковская)
9. Земляки (С.Миронов)
10. Поезд (Н.Олев)
11. Любовь надо беречь (А.Жигарев)
12. Ты мне снишься (И.Кохановский)
13. Вишнёвая метель (А.Поперечный)
14. Спешите делать добрые дела (К.Филиппова)
15. Открой мне, Господи, глаза (В.Лунин)
Музыка В.Мигули.
Исполнитель В.Мигуля
(3) дуэт с В.Толкуновой

треклист CD2:

1. Трава у дома (А.Поперечный) - Сергей Скачков и группа "Земляне"
2. Поговори со мною, мама (В.Гин) - Валентина Толкунова
3. Солнечные часы (И.Резник) - Яак Йоала
4. Не остуди своё сердце, сынок (В.Лазарев) - Юрий Богатиков
5. Аленький цветочек (О.Рябоконь) - Галина Улетова
6. Любовь шагает по Земле (Ю.Каменецкий) - Владимир Макаров
7. Морская песня (Ю.Гарин) - Анс. песни и пляски Сев. флота
8. Доброта (Б.Дубровин) - Ольга Воронец
9. Воспоминание (Танго) (С.Абрамов) - Иосиф Кобзон
10. Парни довоенных лет (К.Филиппова) - Людмила Зыкина
11. Песнь о солдате (М.Агашина) - Иосиф Кобзон
12. Когда мы любим (М.Танич) - ВИА "Пламя" (солист Вячеслав Малежик)
13. Сердце морское (Л.Ошанин) - ВИА "Надежда"
14. Отведу твою беду (И.Гончарова) - Валерий Ободзинский
15. Тропинка та не затерялась (В.Боков) - Галина Ненашева
16. Первое апреля (И.Шаферан) - Геннадий Белов
17. Аты-баты (М.Танич) - ВИА "Пламя" (солист Вячеслав Малежик)
18. Я люблю этот мир (Л.Дербенёв) - ВИА "Самоцветы"
19. Хороши бы мы были (А.Очирова) - Лариса Долина
20. Одесский причал (Ю.Гарин) - Галина Невара
21. Земляничная поляна (И.Резник) - Сергей Избаш
22. Послесловие (А.Очирова) - Марина Мигуля и Ренат Ибрагимов
Музыка В.Мигули.

Жанр:Retro
Год выпуска диска: 2008
Производитель диска: Россия
Аудио кодек: APE
Тип рипа: image+.cue
Битрейт аудио: lossless
Продолжительность: 2ч 11м 32с

Exact Audio Copy V0.99 prebeta 4 from 23. January 2008
Отчёт EAC об извлечении, выполненном 18. сентября 2008, 20:16
Владимир Мигуля / Золотая коллекция ретро (Диск 1)
Дисковод: Optiarc DVD RW AD-5170A Adapter: 0 ID: 0
Режим чтения : Достоверность
Использование точного потока : Да
Отключение кэша аудио : Да
Использование указателей C2 : Нет
Коррекция смещения при чтении : 48
Способность читать области Lead-in и Lead-out : Нет
Заполнение пропущенных сэмплов тишиной : Да
Удаление блоков с тишиной в начале и конце : Нет
При вычислениях CRC использовались нулевые сэмплы : Да
Интерфейс : Встроенный Win32-интерфейс для Win NT/2000
Выходной формат : Внутренние WAV-операции
Формат сэмплов : 44.100 Гц; 16 бит; стерео
TOC извлечённого CD
Трек | Старт | Длительность | Начальный сектор | Конечный сектор
---------------------------------------------------------------------
1 | 0:00.00 | 4:24.31 | 0 | 19830
2 | 4:24.31 | 3:50.00 | 19831 | 37080
3 | 8:14.31 | 2:57.39 | 37081 | 50394
4 | 11:11.70 | 3:43.41 | 50395 | 67160
5 | 14:55.36 | 3:13.39 | 67161 | 81674
6 | 18:09.00 | 3:20.72 | 81675 | 96746
7 | 21:29.72 | 3:04.53 | 96747 | 110599
8 | 24:34.50 | 3:35.64 | 110600 | 126788
9 | 28:10.39 | 4:32.65 | 126789 | 147253
10 | 32:43.29 | 3:51.16 | 147254 | 164594
11 | 36:34.45 | 3:06.66 | 164595 | 178610
12 | 39:41.36 | 3:42.14 | 178611 | 195274
13 | 43:23.50 | 3:08.11 | 195275 | 209385
14 | 46:31.61 | 3:19.25 | 209386 | 224335
15 | 49:51.11 | 3:33.69 | 224336 | 240379
Характеристики диапазона извлечения и сообщения об ошибках
Выбранный диапазон
Имя файла D:AudioВ.МигуляCD1Владимир Мигуля - Золотая коллекция ретро (Диск 1).wav
Пиковый уровень 98.8 %
Качество диапазона 99.9 %
CRC копии 9D02B01C
Копирование... OK
Ошибок не произошло
Конец отчёта
Exact Audio Copy V0.99 prebeta 4 from 23. January 2008
Отчёт EAC об извлечении, выполненном 18. сентября 2008, 20:39
Владимир Мигуля / Золотая коллекция ретро (Диск 2)
Дисковод: Optiarc DVD RW AD-5170A Adapter: 0 ID: 0
Режим чтения : Достоверность
Использование точного потока : Да
Отключение кэша аудио : Да
Использование указателей C2 : Нет
Коррекция смещения при чтении : 48
Способность читать области Lead-in и Lead-out : Нет
Заполнение пропущенных сэмплов тишиной : Да
Удаление блоков с тишиной в начале и конце : Нет
При вычислениях CRC использовались нулевые сэмплы : Да
Интерфейс : Встроенный Win32-интерфейс для Win NT/2000
Выходной формат : Внутренние WAV-операции
Формат сэмплов : 44.100 Гц; 16 бит; стерео
TOC извлечённого CD
Трек | Старт | Длительность | Начальный сектор | Конечный сектор
---------------------------------------------------------------------
1 | 0:00.00 | 4:43.64 | 0 | 21288
2 | 4:43.64 | 3:40.43 | 21289 | 37831
3 | 8:24.32 | 3:26.70 | 37832 | 53351
4 | 11:51.27 | 3:02.60 | 53352 | 67061
5 | 14:54.12 | 3:02.51 | 67062 | 80762
6 | 17:56.63 | 1:42.10 | 80763 | 88422
7 | 19:38.73 | 2:34.48 | 88423 | 100020
8 | 22:13.46 | 3:22.66 | 100021 | 115236
9 | 25:36.37 | 3:32.62 | 115237 | 131198
10 | 29:09.24 | 4:11.18 | 131199 | 150041
11 | 33:20.42 | 5:20.02 | 150042 | 174043
12 | 38:40.44 | 4:08.63 | 174044 | 192706
13 | 42:49.32 | 2:36.18 | 192707 | 204424
14 | 45:25.50 | 3:53.22 | 204425 | 221921
15 | 49:18.72 | 3:20.45 | 221922 | 236966
16 | 52:39.42 | 3:25.55 | 236967 | 252396
17 | 56:05.22 | 2:53.25 | 252397 | 265396
18 | 58:58.47 | 3:55.33 | 265397 | 283054
19 | 62:54.05 | 3:35.66 | 283055 | 299245
20 | 66:29.71 | 4:35.55 | 299246 | 319925
21 | 71:05.51 | 3:40.27 | 319926 | 336452
22 | 74:46.03 | 3:17.22 | 336453 | 351249
Характеристики диапазона извлечения и сообщения об ошибках
Выбранный диапазон
Имя файла D:AudioВ.МигуляCD2Владимир Мигуля - Золотая коллекция ретро (Диск 2).wav
Пиковый уровень 98.8 %
Качество диапазона 99.9 %
CRC копии D7B95CF2
Копирование... OK
Ошибок не произошло
Конец отчёта
 

Вложения

  • 18,5 KB Просмотры: 0
    Личеров 0
    Сидеров 0
    Файлов 15
    Объем 776,4 MB
Ваш e-mail не будет опубликован. Он потребуется для подтверждения Вашего поста.
Оформление текста Нажмите «Ввод», чтобы отправить ответ.