Инструкция новичку Путеводитель по форуму Прокси для Telegram Показать подсказки , это бомба!

Наш бот-каппер, проверенных ставок бота (По 15 стратегиям, за последние 30 дней): 1025 выиграно, 99 возврат, 483 проиграно. Проходимость: 69.94%!

Скачать Вий (2014) BDRip-AVC от ExKinoRay | Лицензия бесплатно через торрент

  • 20 марта ночью произошел сбой в следствии которого были потеряны несколько сотен учетных записей.
    Потеряны только учетки, но не контент. Если вы уже были зарегистрированы на форуме и имели какой-то ранг или сообщения на форуме то зарегистрируйтесь снова (с тем же ником что и был) и напишите в тех подержку "Восстановите мой аккаунт". Восстановим.
    Прошу прощения за неудобства.
Если Вы не хотите скачивать, Вы всегда можете посмотреть онлайн, просто нажмите кнопку ниже :

Открыть плеер

Torrent_Bot

Торрент-Бот
Бот форума
4 Окт 2016
91
7



Информация о фильме

Оригинальное название: Вий
Год выпуска: 2014
Жанр:Фэнтези, триллер, экранизация
Выпущено: Германия, Великобритания, Чехия, Украина, Россия, Rospofilm, Step by Step Film Production
Режиссер: Олег Степченко
В ролях: Джейсон Флеминг, Алексей Чадов, Агния Дитковските, Андрей Смоляков, Игорь Жижикин, Олег Тактаров, Валерий Золотухин, Нина Русланова, Юрий Цурило, Александр Яковлев


О фильме: Начало XVIII века. Картограф Джонатан Грин совершает путешествие в Восточную Европу. Миновав Трансильванию, он понимает, что заблудился. Изрядно поплутав в тумане, он оказывается в небольшом казацком поселении. Народ живет здесь в затворничестве, оградив себя от любых контактов с остальным миром. Что скрывают жители хутора? Чего боятся и почему прячутся? Ученый решает разгадать тайну, связанную с именем необыкновенного мифического создания — Вия…




Файл

Качество: ВDRip (AVC)
Видео: MPEG-4 AVC, 3500 Кбит/с, 1024x576, 24 кадр/с
Аудио: AC3, 6 ch, 448 Кбит/с
Размер: 3.59 ГБ
Продолжительность: 02:10:12
Язык: Русский



Инфо-файл
Общее
Уникальный идентификатор : 246520759658408400016755329001970482233 (0xB9762BD9EB1FF94A833FC698AB403C39)
Полное имя : D:ЗагрузкиViy.2013.x264.BDRip.(AVC).ExKinoRay.mkv
Формат : Matroska
Версия формата : Version 2
Размер файла : 3,59 Гбайт
Продолжительность : 2 ч. 10 м.
Общий поток : 3947 Кбит/сек
Название фильма : Вий.2013.Rip by: ollan
Дата кодирования : UTC 2014-03-16 06:11:48
Программа кодирования : mkvmerge v5.6.0 ('Kenya Kane') built on May 27 2012 16:44:04
Библиотека кодирования : libebml v1.2.3 + libmatroska v1.3.0

Видео
Идентификатор : 1
Формат : AVC
Формат/Информация : Advanced Video Codec
Профиль формата : High@L4.1
Параметр CABAC формата : Да
Параметр ReFrames формата : 9 кадров
Идентификатор кодека : V_MPEG4/ISO/AVC
Продолжительность : 2 ч. 10 м.
Битрейт : 3500 Кбит/сек
Ширина : 1024 пикселя
Высота : 576 пикселей
Соотношение сторон : 16:9
Режим частоты кадров : Постоянный
Частота кадров : 23,976 кадра/сек
Цветовое пространство : YUV
Субдискретизация насыщенности : 4:2:0
Битовая глубина : 8 бит
Тип развёртки : Прогрессивная
Бит/(Пиксели*Кадры) : 0.247
Размер потока : 3,11 Гбайт (87%)
Библиотека кодирования : x264 core 125 r2200 999b753
Настройки программы : cabac=1 / ref=9 / deblock=1:-3:-3 / analyse=0x3:0x133 / me=umh / subme=11 / psy=1 / psy_rd=1.00:0.10 / mixed_ref=1 / me_range=32 / chroma_me=1 / trellis=2 / 8x8dct=1 / cqm=0 / deadzone=21,11 / fast_pskip=0 / chroma_qp_offset=-3 / threads=12 / lookahead_threads=2 / sliced_threads=0 / nr=0 / decimate=0 / interlaced=0 / bluray_compat=0 / constrained_intra=0 / bframes=9 / b_pyramid=2 / b_adapt=2 / b_bias=0 / direct=3 / weightb=1 / open_gop=0 / weightp=2 / keyint=240 / keyint_min=23 / scenecut=40 / intra_refresh=0 / rc_lookahead=40 / rc=2pass / mbtree=1 / bitrate=3500 / ratetol=1.0 / qcomp=0.60 / qpmin=0 / qpmax=69 / qpstep=4 / cplxblur=20.0 / qblur=0.5 / ip_ratio=1.40 / aq=1:1.00
Default : Да
Forced : Нет

Аудио
Идентификатор : 2
Формат : AC-3
Формат/Информация : Audio Coding 3
Расширение режима : CM (complete main)
Параметр Endianness формата : Big
Идентификатор кодека : A_AC3
Продолжительность : 2 ч. 10 м.
Вид битрейта : Постоянный
Битрейт : 448 Кбит/сек
Каналы : 6 каналов
Расположение каналов : Front: L C R, Side: L R, LFE
Частота : 48,0 КГц
Битовая глубина : 16 бит
Метод сжатия : С потерями
Размер потока : 417 Мбайт (11%)
Язык : Russian
Default : Да
Forced : Нет

Меню
00:00:00.000 : ru:Chapter 1
00:16:15.474 : ru:Chapter 2
00:32:07.634 : ru:Chapter 3
00:44:54.650 : ru:Chapter 4
01:07:12.194 : ru:Chapter 5
01:20:37.791 : ru:Chapter 6
01:37:30.803 : ru:Chapter 7
01:52:43.131 : ru:Chapter 8

Скриншоты



Релиз от: Rip by:
 

Вложения

  • 19,1 KB Просмотры: 0
    Личеров 0
    Сидеров 0
    Файлов 1
    Объем 3,6 GB
Ваш e-mail не будет опубликован. Он потребуется для подтверждения Вашего поста.
Оформление текста Нажмите «Ввод», чтобы отправить ответ.

Привет!

Мы группа людей которые решили помочь другим в решении их проблем, а так же пользователям с поиском самых свежих и качественных инфопродуктов. За 4 с небольшим месяца мы создали этот форум на который заходят ежедневно тысячи человек и посещаемость постоянно растёт. Мы создали панель лицензирования для защиты PHP скриптов от воровства и SEO панель для мониторинга наших сайтов и выбора верной стратегии их развития. Мы надеемся что то что мы создали пригодится Вам и возможно Вы поможете нам развиваться и совершенствоваться вместе с Вами.

Статистика форума

Темы
332.992
Сообщения
353.084
Пользователи
23.908
Новый пользователь
velichayshiy

Приложения форума для iOS и Android


У ркн там нет власти ;)
Гостевуха
Помощь Пользователи
  • D Chat Bot:
    dolor покинул(а) комнату.
  • M Chat Bot:
    Гость Marina S присоединился к комнате.
  • G @ (Гость) goodness:
    Всем привет!
    Цитата
  • C Chat Bot:
    caesar79 присоединился(лась) к комнате.
  • Captain Chat Bot:
    Captain присоединился(лась) к комнате.
  • Captain @ Captain:
    Батя в здание
    Цитата
  • mizaider Chat Bot:
    mizaider присоединился(лась) к комнате.
  • Alpha Chat Bot:
    Alpha присоединился(лась) к комнате.
  • iod Chat Bot:
    iod присоединился(лась) к комнате.
  • P Chat Bot:
    Panamka присоединился(лась) к комнате.
  • Captain @ Captain:
    Батя в здание
    Цитата
  • Kolin Chat Bot:
    Kolin присоединился(лась) к комнате.
  • Kolin @ Kolin:
    Че каво?
    Цитата
  • J Chat Bot:
    Гость jessi pinkman присоединился к комнате.
  • J (Гость) jessi pinkman:
    чо за форум такой?
    Цитата
  • J (Гость) jessi pinkman:
    Kolin написал(а):
    Цитата
  • Captain @ Captain:
    Батя в здание
    Цитата
  • SunnyLeona Chat Bot:
    SunnyLeona присоединился(лась) к комнате.
  • SunnyLeona Chat Bot:
    SunnyLeona покинул(а) комнату.
  • M Chat Bot:
    Mono покинул(а) комнату.
  • M Chat Bot:
    Mono присоединился(лась) к комнате.
  • Илон Маск Chat Bot:
    Илон Маск присоединился(лась) к комнате.
  • M Chat Bot:
    mo2000 присоединился(лась) к комнате.
  • Captain @ Captain:
    Батя в здание
    Цитата
  • Eevee Chat Bot:
    Eevee присоединился(лась) к комнате.
    Eevee Chat Bot: Eevee присоединился(лась) к комнате.