За сегодня опубликовано 0 новых материалов.
Инструкция новичку Путеводитель по форуму Прокси для Telegram Показать подсказки , это бомба!

Скачать ВИА Пламя - Снег кружится (1996) APE by гаврила бесплатно через торрент

  • Получай до 480 рублей за каждого приглашенного пользователя!
    представляем Вам очередное расширение партнерской программы, подробности описаны тут -> ссылка
  • 90% материалов доступно к скачиванию после простой регистрации!
    Если же ты хочешь скачивать материалы без требования оставлять отзывы то получи группу "Новичок", 10 способов повышения описаны тут -> ссылка
  • К сожалению количество битых ссылок растет и мы уже не можем их оперативно восстанавливать поэтому просим помощи у каждого нашего пользователя.
    С сегодняшнего дня, за каждую восстановленную ссылку мы заплатим Вам.
    Подробнее тут -> ссылка
  • Перенесем твои заслуги с другого ресурса!
    Мы понимаем как сложно прокачивать аккаунты на форумах, вроде раскачал аккаунт, а тут появляется ресурс в 100 раз круче но тоже с системой прокачки и снова качать аккаунт...
    Предлагаем вам перенести Ваши заслуги на другом подобном ресурсе к нам.
    Подробности описаны тут -> ссылка
  • Вы можете получать по 2.5% с каждой покупки и продажи на маркете! Подробности в теме Партнёрская программа

Torrent_Bot

Торрент-Бот
Бот форума
4 Окт 2016
125
32
20
Трек лист:
01. (00:03:13) Пламя - Идёт солдат по городу
02. (00:04:00) Пламя - Здравствуй, мама
03. (00:04:11) Пламя - Когда мы любим
04. (00:03:50) Пламя - Синяя волна
05. (00:03:57) Пламя - Рассвет-чародей
06. (00:02:56) Пламя - Гороскоп
07. (00:03:28) Пламя - Прикажи помиловать
08. (00:04:41) Пламя - Спасибо, музыка
09. (00:03:15) Пламя - На дальней станции сойду
10. (00:03:34) Пламя - До шестнадцати лет
11. (00:03:39) Пламя - Щеглы
12. (00:04:27) Пламя - Солнце без огня
13. (00:03:40) Пламя - Кольцо
14. (00:02:51) Пламя - Может я тебя выдумал
15. (00:04:33) Пламя - Переведи часы назад
16. (00:04:07) Пламя - Снег кружиться

Жанр:Retro
Год выпуска диска: 1996
Производитель диска: Россия
Аудио кодек: APE
Тип рипа: image+.cue
Битрейт аудио: lossless


Exact Audio Copy V0.99 prebeta 4 from 23. January 2008
Отчёт EAC об извлечении, выполненном 8.августа 2008, 21:28
Пламя / Снег кружится

Дисковод: Optiarc DVD RW AD-5170A Adapter: 0 ID: 0

Режим чтения : Достоверность
Использование точного потока : Да
Отключение кэша аудио : Да
Использование указателей C2 : Нет

Коррекция смещения при чтении :
48
Способность читать области Lead-in и Lead-out :
Нет
Заполнение пропущенных сэмплов тишиной
: Да
Удаление блоков с тишиной в начале и конце
: Нет
При вычислениях CRC использовались нулевые
сэмплы : Да
Интерфейс :
Встроенный Win32-интерфейс для Win NT/2000

Выходной формат : Внутренние WAV-операции
Формат сэмплов : 44.100 Гц; 16 бит; стерео


TOC извлечённого CD

Трек | Старт | Длительность | Начальный
сектор | Конечный сектор
---------------------------------------------------------------------
1 | 0:00.00 | 3:13.34 | 0 | 14508
2 | 3:13.34 | 3:59.68 | 14509 | 32501
3 | 7:13.27 | 4:10.56 | 32502 | 51307
4 | 11:24.08 | 3:50.04 | 51308 | 68561
5 | 15:14.12 | 3:57.50 | 68562 | 86386
6 | 19:11.62 | 2:55.61 | 86387 | 99572
7 | 22:07.48 | 3:27.48 | 99573 | 115145
8 | 25:35.21 | 4:40.65 | 115146 | 136210
9 | 30:16.11 | 3:15.29 | 136211 | 150864
10 | 33:31.40 | 3:34.11 | 150865 | 166925
11 | 37:05.51 | 3:38.24 | 166926 | 183299
12 | 40:44.00 | 4:27.26 | 183300 | 203350
13 | 45:11.26 | 3:39.55 | 203351 | 219830
14 | 48:51.06 | 2:50.73 | 219831 | 232653
15 | 51:42.04 | 4:33.69 | 232654 | 253197
16 | 56:15.73 | 4:06.35 | 253198 | 271682


Характеристики диапазона извлечения и
сообщения об ошибках

Выбранный диапазон

Имя файла D:AudioСнег кружитсяПламя - Снег
кружится.wav

Пиковый уровень 88.3 %
Качество диапазона 100.0 %
CRC копии E1D86BA9
Копирование... OK

Ошибок не произошло

Конец отчёта
 

Вложения

  • 15,5 KB Просмотры: 0
    Личеров 0
    Сидеров 0
    Файлов 9
    Объем 357,7 MB
Ваш e-mail не будет опубликован. Он потребуется для подтверждения Вашего поста.
Оформление текста Нажмите «Ввод», чтобы отправить ответ.