За сегодня опубликовано 17 новых материалов.
Инструкция новичку Путеводитель по форуму Прокси для Telegram Показать подсказки , это бомба!

Скачать ВИА Пламя - Не повторяется такое никогда (1996) APE by гаврила бесплатно через торрент

  • Получай до 480 рублей за каждого приглашенного пользователя!
    представляем Вам очередное расширение партнерской программы, подробности описаны тут -> ссылка
  • 90% материалов доступно к скачиванию после простой регистрации!
    Если же ты хочешь скачивать материалы без требования оставлять отзывы то получи группу "Новичок", 10 способов повышения описаны тут -> ссылка
  • К сожалению количество битых ссылок растет и мы уже не можем их оперативно восстанавливать поэтому просим помощи у каждого нашего пользователя.
    С сегодняшнего дня, за каждую восстановленную ссылку мы заплатим Вам.
    Подробнее тут -> ссылка
  • Перенесем твои заслуги с другого ресурса!
    Мы понимаем как сложно прокачивать аккаунты на форумах, вроде раскачал аккаунт, а тут появляется ресурс в 100 раз круче но тоже с системой прокачки и снова качать аккаунт...
    Предлагаем вам перенести Ваши заслуги на другом подобном ресурсе к нам.
    Подробности описаны тут -> ссылка
  • Вы можете получать по 2.5% с каждой покупки и продажи на маркете! Подробности в теме Партнёрская программа

Torrent_Bot

Торрент-Бот
Бот форума
4 Окт 2016
125
32
20
Трек лист:

01. (00:03:43) Пламя - Не повторяется такое никогда
02. (00:03:11) Пламя - Это говорим мы
03. (00:03:28) Пламя - Под музыку Вивальди
04. (00:02:36) Пламя - Кенгуру
05. (00:03:39) Пламя - Синие дожди
06. (00:05:18) Пламя - Снежная королева
07. (00:04:12) Пламя - Помчаться дни
08. (00:02:20) Пламя - Строим БАМ
09. (00:03:27) Пламя - Цирк шапито
10. (00:04:55) Пламя - Девочка с приморского бульвара
11. (00:02:30) Пламя - Ничто не сходит с рук
12. (00:03:36) Пламя - Путеводная звезда
13. (00:03:48) Пламя - Детства последний звонок
14. (00:02:40) Пламя - Пастух
15. (00:03:51) Пламя - Колосок золотой
16. (00:03:50) Пламя - Спасенье

Жанр:Retro
Год выпуска диска: 1996
Производитель диска: Россия
Аудио кодек: APE
Тип рипа: image+.cue
Битрейт аудио: lossless

Exact Audio Copy V0.99 prebeta 4 from 23. January 2008

Отчёт EAC об извлечении, выполненном 8.августа 2008, 21:11
Пламя / Не повторяется такое никогда

Дисковод: Optiarc DVD RW AD-5170A Adapter: 0 ID: 0

Режим чтения : Достоверность
Использование точного потока : Да
Отключение кэша аудио : Да
Использование указателей C2 : Нет

Коррекция смещения при чтении :
48
Способность читать области Lead-in и Lead-out :
Нет
Заполнение пропущенных сэмплов тишиной
: Да
Удаление блоков с тишиной в начале и конце
: Нет
При вычислениях CRC использовались нулевые
сэмплы : Да
Интерфейс :
Встроенный Win32-интерфейс для Win NT/2000

Выходной формат : Внутренние WAV-операции
Формат сэмплов : 44.100 Гц; 16 бит; стерео


TOC извлечённого CD

Трек | Старт | Длительность | Начальный
сектор | Конечный сектор
---------------------------------------------------------------------
1 | 0:00.00 | 3:45.66 | 0 | 16940
2 | 3:45.66 | 3:12.50 | 16941 | 31390
3 | 6:58.41 | 3:29.58 | 31391 | 47123
4 | 10:28.24 | 2:38.28 | 47124 | 59001
5 | 13:06.52 | 3:41.36 | 59002 | 75612
6 | 16:48.13 | 5:20.24 | 75613 | 99636
7 | 22:08.37 | 4:14.25 | 99637 | 118711
8 | 26:22.62 | 2:21.71 | 118712 | 129357
9 | 28:44.58 | 3:29.33 | 129358 | 145065
10 | 32:14.16 | 4:57.63 | 145066 | 167403
11 | 37:12.04 | 2:32.55 | 167404 | 178858
12 | 39:44.59 | 3:38.15 | 178859 | 195223
13 | 43:22.74 | 3:49.33 | 195224 | 212431
14 | 47:12.32 | 2:42.24 | 212432 | 224605
15 | 49:54.56 | 3:52.60 | 224606 | 242065
16 | 53:47.41 | 3:49.05 | 242066 | 259245


Характеристики диапазона извлечения и
сообщения об ошибках

Выбранный диапазон

Имя файла D:AudioНе повторяется такое
никогдаПламя - Не повторяется такое
никогда.wav

Пиковый уровень 90.6 %
Качество диапазона 100.0 %
CRC копии EB7A2560
Копирование... OK

Ошибок не произошло

Конец отчёта
 

Вложения

  • 15,8 KB Просмотры: 0
    Личеров 0
    Сидеров 0
    Файлов 10
    Объем 361,8 MB
Ваш e-mail не будет опубликован. Он потребуется для подтверждения Вашего поста.
Оформление текста Нажмите «Ввод», чтобы отправить ответ.