За сегодня опубликовано 0 новых материалов.
Инструкция новичку Путеводитель по форуму Прокси для Telegram Показать подсказки , это бомба!

Скачать ВИА Пламя - Не надо печалиться (1996) APE by гаврила бесплатно через торрент

  • Получай до 480 рублей за каждого приглашенного пользователя!
    представляем Вам очередное расширение партнерской программы, подробности описаны тут -> ссылка
  • 90% материалов доступно к скачиванию после простой регистрации!
    Если же ты хочешь скачивать материалы без требования оставлять отзывы то получи группу "Новичок", 10 способов повышения описаны тут -> ссылка
  • К сожалению количество битых ссылок растет и мы уже не можем их оперативно восстанавливать поэтому просим помощи у каждого нашего пользователя.
    С сегодняшнего дня, за каждую восстановленную ссылку мы заплатим Вам.
    Подробнее тут -> ссылка
  • Перенесем твои заслуги с другого ресурса!
    Мы понимаем как сложно прокачивать аккаунты на форумах, вроде раскачал аккаунт, а тут появляется ресурс в 100 раз круче но тоже с системой прокачки и снова качать аккаунт...
    Предлагаем вам перенести Ваши заслуги на другом подобном ресурсе к нам.
    Подробности описаны тут -> ссылка
  • Вы можете получать по 2.5% с каждой покупки и продажи на маркете! Подробности в теме Партнёрская программа

Torrent_Bot

Торрент-Бот
Бот форума
4 Окт 2016
125
30
20
Трек лист:

01. (00:02:51) Пламя - Не надо печалиться
02. (00:03:52) Пламя - У деревню Крюково
03. (00:03:14) Пламя - Дорога железная
04. (00:03:08) Пламя - Зацветает краснотал
05. (00:03:18) Пламя - На два дня
06. (00:03:57) Пламя - Зелёная калитка
07. (00:02:41) Пламя - Морская песенка
08. (00:02:39) Пламя - Раскрывается сердце
09. (00:02:54) Пламя - Аты-баты
10. (00:03:20) Пламя - Земля отцов
11. (00:02:24) Пламя - Оксана
12. (00:03:40) Пламя - У серебрянного бора
13. (00:03:47) Пламя - Не поговорили
14. (00:04:07) Пламя - Лабиринт
15. (00:03:10) Пламя - Саратов на Волге
16. (00:04:47) Пламя - Когда мужчины говорят

Жанр:Retro
Год выпуска диска: 1996
Производитель диска: Россия
Аудио кодек: APE
Тип рипа: image+.cue
Битрейт аудио: lossless

Exact Audio Copy V0.99 prebeta 4 from 23. January 2008

Отчёт EAC об извлечении, выполненном 8.августа 2008, 20:53
Пламя / Не надо печалиться

Дисковод: Optiarc DVD RW AD-5170A Adapter: 0 ID: 0

Режим чтения : Достоверность
Использование точного потока : Да
Отключение кэша аудио : Да
Использование указателей C2 : Нет

Коррекция смещения при чтении :
48
Способность читать области Lead-in и Lead-out :
Нет
Заполнение пропущенных сэмплов тишиной
: Да
Удаление блоков с тишиной в начале и конце
: Нет
При вычислениях CRC использовались нулевые
сэмплы : Да
Интерфейс :
Встроенный Win32-интерфейс для Win NT/2000

Выходной формат : Внутренние WAV-операции
Формат сэмплов : 44.100 Гц; 16 бит; стерео


TOC извлечённого CD

Трек | Старт | Длительность | Начальный
сектор | Конечный сектор
---------------------------------------------------------------------
1 | 0:00.00 | 2:53.42 | 0 | 13016
2 | 2:53.42 | 3:53.35 | 13017 | 30526
3 | 6:47.02 | 3:16.47 | 30527 | 45273
4 | 10:03.49 | 3:09.66 | 45274 | 59514
5 | 13:13.40 | 3:19.48 | 59515 | 74487
6 | 16:33.13 | 3:59.53 | 74488 | 92465
7 | 20:32.66 | 2:42.68 | 92466 | 104683
8 | 23:15.59 | 2:40.18 | 104684 | 116701
9 | 25:56.02 | 2:56.13 | 116702 | 129914
10 | 28:52.15 | 3:22.31 | 129915 | 145095
11 | 32:14.46 | 2:25.30 | 145096 | 156000
12 | 34:40.01 | 3:42.29 | 156001 | 172679
13 | 38:22.30 | 3:48.64 | 172680 | 189843
14 | 42:11.19 | 4:08.74 | 189844 | 208517
15 | 46:20.18 | 3:12.40 | 208518 | 222957
16 | 49:32.58 | 4:46.46 | 222958 | 244453


Характеристики диапазона извлечения и
сообщения об ошибках

Выбранный диапазон

Имя файла D:AudioНе надо печалитьсяПламя -
Не надо печалиться.wav

Пиковый уровень 89.8 %
Качество диапазона 100.0 %
CRC копии 22251A96
Копирование... OK

Ошибок не произошло

Конец отчёта
 

Вложения

  • 14,2 KB Просмотры: 0
    Личеров 0
    Сидеров 0
    Файлов 9
    Объем 323,5 MB
Ваш e-mail не будет опубликован. Он потребуется для подтверждения Вашего поста.
Оформление текста Нажмите «Ввод», чтобы отправить ответ.