За сегодня опубликовано 0 новых материалов.
Инструкция новичку Путеводитель по форуму Прокси для Telegram Показать подсказки , это бомба!

Скачать Великолепный век / Muhtesem Yüzyil [S01x01-24 из 24] (2011) SATRip | D бесплатно через торрент

  • Получай до 480 рублей за каждого приглашенного пользователя!
    представляем Вам очередное расширение партнерской программы, подробности описаны тут -> ссылка
  • 90% материалов доступно к скачиванию после простой регистрации!
    Если же ты хочешь скачивать материалы без требования оставлять отзывы то получи группу "Новичок", 10 способов повышения описаны тут -> ссылка
  • К сожалению количество битых ссылок растет и мы уже не можем их оперативно восстанавливать поэтому просим помощи у каждого нашего пользователя.
    С сегодняшнего дня, за каждую восстановленную ссылку мы заплатим Вам.
    Подробнее тут -> ссылка
  • Перенесем твои заслуги с другого ресурса!
    Мы понимаем как сложно прокачивать аккаунты на форумах, вроде раскачал аккаунт, а тут появляется ресурс в 100 раз круче но тоже с системой прокачки и снова качать аккаунт...
    Предлагаем вам перенести Ваши заслуги на другом подобном ресурсе к нам.
    Подробности описаны тут -> ссылка
  • Вы можете получать по 2.5% с каждой покупки и продажи на маркете! Подробности в теме Партнёрская программа
Если Вы не хотите скачивать, Вы всегда можете посмотреть онлайн, просто нажмите кнопку ниже :

Открыть плеер

Torrent_Bot

Торрент-Бот
Бот форума
4 Окт 2016
125
31
20
Информация о фильме
Название: Великолепный век
Оригинальное название: Muhtesem Yüzyil
Год выхода: 2011
Жанр: драма, мелодрама, военный, биография, история
Режиссер: Дурул Тайлан / Durul Taylan, Ягмур Тайлан / Yagmur Taylan
В ролях: Небахат Чехре /Nebahat Çehre/, Окан Ялабик /Okan Yalabik/, Сельма Эргеч /Selma Ergeç/, Халит Эргенч /Halit Ergenç/, Филиз Ахмет /Filiz Ahmet/

О фильме:
Сюжет основан на реальных событиях, произошедших во времена правления султана Сулеймана I, и расказывает о периоде жизни девушки Роксоланы, взятой в плен турками и названной Хюррем. Позже она стала первой официальной женой Сулеймана, но для этого ей пришлось пройти сложный путь…


2596b46dca752d9c9129de59c3a310ee.gif0ea106e52ded180eab4c071cfc21cb32.gif
Страна: Турция
Продолжительность: ~100 минут серия
Перевод: Профессиональный (полное дублирование) [ТК Домашний]

Файл
Кодек: XviD / MP3
Качество: SATRip
Видео: XviD, 704x400 (16:9), 25.000 fps, ~1300 kbps, ~0.180 bit/pixel
Звук: MP3, 48 kHz, 2 ch, ~128 kbps

Семпл

MediaInfo
Общее
Полное имя : F:Muhtesem.Yuzyil.s01.NewStudioMuhtesem.Yuzyil.s01e01.SATRip.NewStudio.TV.avi
Формат : AVI
Формат/Информация : Audio Video Interleave
Размер файла : 998 Мбайт
Продолжительность : 1 ч. 40 м.
Общий поток : 1393 Кбит/сек
Программа кодирования : VirtualDubMod 1.5.10.2 (build 2540/release)
Библиотека кодирования : VirtualDubMod build 2540/release

Видео
Идентификатор : 0
Формат : MPEG-4 Visual
Профиль формата : Advanced [email protected]
Параметр BVOP формата : 2
Параметр QPel формата : Нет
Параметр GMC формата : Без точки перехода
Параметр матрицы формата : Default (MPEG)
Идентификатор кодека : XVID
Идентификатор кодека/Подсказка : XviD
Продолжительность : 1 ч. 40 м.
Битрейт : 1256 Кбит/сек
Ширина : 704 пикс.
Высота : 400 пикс.
Соотношение сторон : 16:9
Частота кадров : 25,000 кадр/сек
Цветовое пространство : YUV
Подвыборка цветности : 4:2:0
Битовая глубина : 8 бит
Тип развёртки : Прогрессивная
Метод сжатия : С потерями
Бит/(Пиксели*Кадры) : 0.178
Размер потока : 899 Мбайт (90%)
Библиотека кодирования : XviD 64

Аудио
Идентификатор : 1
Формат : MPEG Audio
Версия формата : Version 1
Профиль формата : Layer 3
Режим : Joint stereo
Идентификатор кодека : 55
Идентификатор кодека/Подсказка : MP3
Продолжительность : 1 ч. 40 м.
Вид битрейта : Постоянный
Битрейт : 128 Кбит/сек
Каналы : 2 канала
Частота : 48,0 КГц
Метод сжатия : С потерями
Размер потока : 91,6 Мбайт (9%)
Выравнивание : Соединение по промежуткам
Продолжительность промежутка : 40 мс. (1,00 видеокадр)
Время предзагрузки промежутка : 504 ms
Библиотека кодирования : LAME3.90.3UUUА
Скриншоты
fda2840cc371eff55c8392f2807067d2.pngc1705428593a7bc2a53a895da88069e8.pngaf73e44fe2b1776c7f60c771ff2d40e4.png241c8b850b1ac6cdb4ae75d109f86709.png3b1eda74d9af2135fad04e92c3b86088.pnga6fbd9b4ec2b1435917f1290900589e2.png86942079c3b7228cc3f89c55cbbab969.png2d90fed232bfc14e889c4b7b4f463206.png9ca8f57f8cde516211e47a608293fe72.png01e01f61e6aacbeab29c776447bdc519.png953543a6c9d1e3bfc29633976feaf21d.png26fa13465227510233a7c579effba4d2.png
 

Вложения

  • 145,3 KB Просмотры: 0
    Личеров 0
    Сидеров 0
    Файлов 24
    Объем 28,5 GB
Ваш e-mail не будет опубликован. Он потребуется для подтверждения Вашего поста.
Оформление текста Нажмите «Ввод», чтобы отправить ответ.