За сегодня опубликовано 32 новых материалов.
Инструкция новичку Путеводитель по форуму Прокси для Telegram Показать подсказки , это бомба!

Скачать Великолепный век / Muhtesem Yüzyil [03x64-103] (2012-2013) HDTVRip | L1 бесплатно через торрент

  • Получай до 480 рублей за каждого приглашенного пользователя!
    представляем Вам очередное расширение партнерской программы, подробности описаны тут -> ссылка
  • 90% материалов доступно к скачиванию после простой регистрации!
    Если же ты хочешь скачивать материалы без требования оставлять отзывы то получи группу "Новичок", 10 способов повышения описаны тут -> ссылка
  • К сожалению количество битых ссылок растет и мы уже не можем их оперативно восстанавливать поэтому просим помощи у каждого нашего пользователя.
    С сегодняшнего дня, за каждую восстановленную ссылку мы заплатим Вам.
    Подробнее тут -> ссылка
  • Перенесем твои заслуги с другого ресурса!
    Мы понимаем как сложно прокачивать аккаунты на форумах, вроде раскачал аккаунт, а тут появляется ресурс в 100 раз круче но тоже с системой прокачки и снова качать аккаунт...
    Предлагаем вам перенести Ваши заслуги на другом подобном ресурсе к нам.
    Подробности описаны тут -> ссылка
  • Вы можете получать по 2.5% с каждой покупки и продажи на маркете! Подробности в теме Партнёрская программа
Если Вы не хотите скачивать, Вы всегда можете посмотреть онлайн, просто нажмите кнопку ниже :

Открыть плеер

Torrent_Bot

Торрент-Бот
Бот форума
4 Окт 2016
125
31
20
Информация о фильме
Название: Великолепный век
Оригинальное название: Muhtesem Yüzyil
Год выхода: 2012-2013
Жанр: драма, мелодрама, военный, биография, история
Режиссер: Дурул Тайлан / Durul Taylan, Ягмур Тайлан / Yagmur Taylan
В ролях: Небахат Чехре /Nebahat Çehre/, Окан Ялабик /Okan Yalabik/, Сельма Эргеч /Selma Ergeç/, Халит Эргенч /Halit Ergenç/, Филиз Ахмет /Filiz Ahmet/

О фильме:
Сюжет основан на реальных событиях, произошедших во времена правления султана Сулеймана I, и расказывает о периоде жизни девушки Роксоланы, взятой в плен турками и названной Хюррем. Позже она стала первой официальной женой Сулеймана, но для этого ей пришлось пройти сложный путь…


2596b46dca752d9c9129de59c3a310ee.gif0ea106e52ded180eab4c071cfc21cb32.gif
Страна: Турция
Продолжительность: ~ 100 минут серия
Перевод: Любительский (одноголосый, закадровый) [turok1990]
Переводчик с турецкого языка: Елена -ELVAN- Белова.

Файл
Кодек: DivX / MP3
Качество: HDTVRip
Видео: DivX, 720x408 (1.76:1), 25.000 fps, ~1200 kbps, ~0.16 bit/pixel
Звук: MP3, 48 kHz, 2 ch, ~256 kbps

Семпл

Скриншоты
4fa5a1a37e1d8e6f1c40ebf787aa1817.png84c44e43239fcdceebd929e24d79322a.pngc33ee1024c680f0044aa2670ca68a37a.png83064e377cfaba2aa19e5547e9854853.png5e3f10277ebe0950468801b12f1604d2.pngfbbfa03408b68ec17cc931a59b79d483.pngd3c30af35eb977874d9217ba01a0eaf3.png8b8e898f2d326c3b29acc1e131b44c70.png36e89d77635cb2acb7d1632820b25920.pngd473a582e06438e33f8745ebcd146070.pngb580c6bf21c27096060c7ecc4beb28b3.png6926ab79240093b75ef2d4895f0a0a63.png
MediaInfo
General
Complete name : /media/vek_sezon_3_turok1990/64.Muhtesem_Yuzyil_turok1990.avi
Format : AVI
Format/Info : Audio Video Interleave
File size : 1.12 GiB
Duration : 1h 49mn
Overall bit rate : 1 464 Kbps
Writing library : TMPGEnc 4.0 XPress Version. 4.6.3.267

Video
ID : 0
Format : MPEG-4 Visual
Format settings, BVOP : Yes
Format settings, QPel : No
Format settings, GMC : No warppoints
Format settings, Matrix : Default (H.263)
Codec ID : DX50
Codec ID/Hint : DivX 5
Duration : 1h 49mn
Bit rate : 1 196 Kbps
Width : 720 pixels
Height : 408 pixels
Display aspect ratio : 16:9
Frame rate : 25.000 fps
Color space : YUV
Chroma subsampling : 4:2:0
Bit depth : 8 bits
Scan type : Progressive
Compression mode : Lossy
Bits/(Pixel*Frame) : 0.163
Stream size : 936 MiB (82%)
Writing library : DivX 6.8.5 (UTC 2009-08-20)

Audio
ID : 1
Format : MPEG Audio
Format version : Version 1
Format profile : Layer 3
Codec ID : 55
Codec ID/Hint : MP3
Duration : 1h 49mn
Bit rate mode : Constant
Bit rate : 256 Kbps
Channel(s) : 2 channels
Sampling rate : 48.0 KHz
Compression mode : Lossy
Stream size : 201 MiB (17%)
Alignment : Aligned on interleaves
Interleave, duration : 40 ms (1.00 video frame)
Interleave, preload duration : 408 ms

***Третий сезон закончен. Начало четвертого сезона в сентябре.
 

Вложения

  • 112,4 KB Просмотры: 0
    Личеров 0
    Сидеров 0
    Файлов 50
    Объем 42,8 GB
Ваш e-mail не будет опубликован. Он потребуется для подтверждения Вашего поста.
Оформление текста Нажмите «Ввод», чтобы отправить ответ.