За сегодня опубликовано 0 новых материалов.
Инструкция новичку Путеводитель по форуму Прокси для Telegram Показать подсказки , это бомба!

Скачать Великолепный век / Muhtesem Yüzyil [02x37-63 из 63] (2011-2012) WEBRip | L1 бесплатно через торрент

  • Получай до 480 рублей за каждого приглашенного пользователя!
    представляем Вам очередное расширение партнерской программы, подробности описаны тут -> ссылка
  • 90% материалов доступно к скачиванию после простой регистрации!
    Если же ты хочешь скачивать материалы без требования оставлять отзывы то получи группу "Новичок", 10 способов повышения описаны тут -> ссылка
  • К сожалению количество битых ссылок растет и мы уже не можем их оперативно восстанавливать поэтому просим помощи у каждого нашего пользователя.
    С сегодняшнего дня, за каждую восстановленную ссылку мы заплатим Вам.
    Подробнее тут -> ссылка
  • Перенесем твои заслуги с другого ресурса!
    Мы понимаем как сложно прокачивать аккаунты на форумах, вроде раскачал аккаунт, а тут появляется ресурс в 100 раз круче но тоже с системой прокачки и снова качать аккаунт...
    Предлагаем вам перенести Ваши заслуги на другом подобном ресурсе к нам.
    Подробности описаны тут -> ссылка
  • Вы можете получать по 2.5% с каждой покупки и продажи на маркете! Подробности в теме Партнёрская программа
Если Вы не хотите скачивать, Вы всегда можете посмотреть онлайн, просто нажмите кнопку ниже :

Открыть плеер

Torrent_Bot

Торрент-Бот
Бот форума
4 Окт 2016
125
31
20
Информация о фильме
Название: Великолепный век
Оригинальное название: Muhtesem Yüzyil
Год выхода: 2011-2012
Жанр: драма, мелодрама, военный, биография, история
Режиссер: Дурул Тайлан / Durul Taylan, Ягмур Тайлан / Yagmur Taylan
В ролях: Небахат Чехре /Nebahat Çehre/, Окан Ялабик /Okan Yalabik/, Сельма Эргеч /Selma Ergeç/, Халит Эргенч /Halit Ergenç/, Филиз Ахмет /Filiz Ahmet/

О фильме:
Сюжет основан на реальных событиях, произошедших во времена правления султана Сулеймана I, и расказывает о периоде жизни девушки Роксоланы, взятой в плен турками и названной Хюррем. Позже она стала первой официальной женой Сулеймана, но для этого ей пришлось пройти сложный путь…


2596b46dca752d9c9129de59c3a310ee.gif0ea106e52ded180eab4c071cfc21cb32.gif
Страна: Турция
Продолжительность: ~ 100 минут серия
Перевод: Любительский (одноголосый, закадровый) [turok1990]
Переводчики с турецкого языка: kolbaskina, vetabel, darina. СПАСИБО ИМ БОЛЬШОЕ

Файл
Кодек: DivX / MP3
Качество: WEBRip
Видео: DivX, 720x408 (1.76:1), 25.000 fps, ~1200 kbps, ~0.16 bit/pixel
Звук: MP3, 48 kHz, 2 ch, ~256 kbps

Семпл

MediaInfo
General
Complete name : /vek 2 sezon(odnogoloska)/Muhtesem.Yuzyil.BL.37 (turok1990).avi
Format : AVI
Format/Info : Audio Video Interleave
File size : 1.12 GiB
Duration : 1h 49mn
Overall bit rate : 1 468 Kbps
Writing library : TMPGEnc 4.0 XPress Version. 4.6.3.267

Video
ID : 0
Format : MPEG-4 Visual
Format settings, BVOP : Yes
Format settings, QPel : No
Format settings, GMC : No warppoints
Format settings, Matrix : Default (H.263)
Codec ID : DX50
Codec ID/Hint : DivX 5
Duration : 1h 49mn
Bit rate : 1 199 Kbps
Width : 720 pixels
Height : 408 pixels
Display aspect ratio : 16:9
Frame rate : 25.000 fps
Color space : YUV
Chroma subsampling : 4:2:0
Bit depth : 8 bits
Scan type : Progressive
Compression mode : Lossy
Bits/(Pixel*Frame) : 0.163
Stream size : 936 MiB (82%)
Writing library : DivX 6.8.5 (UTC 2009-08-20)

Audio
ID : 1
Format : MPEG Audio
Format version : Version 1
Format profile : Layer 3
Codec ID : 55
Codec ID/Hint : MP3
Duration : 1h 49mn
Bit rate mode : Constant
Bit rate : 256 Kbps
Channel(s) : 2 channels
Sampling rate : 48.0 KHz
Compression mode : Lossy
Stream size : 200 MiB (17%)
Alignment : Aligned on interleaves
Interleave, duration : 40 ms (1.00 video frame)
Interleave, preload duration : 408 ms
Скриншоты
f89ea444c0ae68feaea2b4d21f2c73d7.pnga2270fbfda4a4b199fb2402d316c4967.png54755101f8b1f720f29afce6b1b8503d.png039b60853652477a9fcfa502229e588c.png838a3926f062f900e81f9c21f804fd39.png2cfd68559c56b8289d52ad7b3ef66bc2.png36b10a36a41718dc78544d6ffa9ba715.png64a671256796eb66a05e10420a255b5f.pngb8bb940f9c9d851f24d53673dbe1c032.png82b530705bdd32f9f8e96bdcf707409d.png0db80974c512e6114ebc7d12eb10187f.png746f349c29e2e2c01f3592b9d7992efa.png
 

Вложения

  • 146,8 KB Просмотры: 0
    Личеров 0
    Сидеров 0
    Файлов 28
    Объем 28,8 GB
Ваш e-mail не будет опубликован. Он потребуется для подтверждения Вашего поста.
Оформление текста Нажмите «Ввод», чтобы отправить ответ.