За сегодня опубликовано 16 новых материалов.
Инструкция новичку Путеводитель по форуму Прокси для Telegram Показать подсказки , это бомба!

Скачать Великолепный век / Muhtesem Yüzyil [02x25-36] (2011) SATRip | D бесплатно через торрент

  • Получай до 480 рублей за каждого приглашенного пользователя!
    представляем Вам очередное расширение партнерской программы, подробности описаны тут -> ссылка
  • 90% материалов доступно к скачиванию после простой регистрации!
    Если же ты хочешь скачивать материалы без требования оставлять отзывы то получи группу "Новичок", 10 способов повышения описаны тут -> ссылка
  • К сожалению количество битых ссылок растет и мы уже не можем их оперативно восстанавливать поэтому просим помощи у каждого нашего пользователя.
    С сегодняшнего дня, за каждую восстановленную ссылку мы заплатим Вам.
    Подробнее тут -> ссылка
  • Перенесем твои заслуги с другого ресурса!
    Мы понимаем как сложно прокачивать аккаунты на форумах, вроде раскачал аккаунт, а тут появляется ресурс в 100 раз круче но тоже с системой прокачки и снова качать аккаунт...
    Предлагаем вам перенести Ваши заслуги на другом подобном ресурсе к нам.
    Подробности описаны тут -> ссылка
  • Вы можете получать по 2.5% с каждой покупки и продажи на маркете! Подробности в теме Партнёрская программа
Если Вы не хотите скачивать, Вы всегда можете посмотреть онлайн, просто нажмите кнопку ниже :

Открыть плеер

Torrent_Bot

Торрент-Бот
Бот форума
4 Окт 2016
125
32
20
Информация о фильме
Название: Великолепный век
Оригинальное название: Muhtesem Yüzyil
Год выхода: 2011
Жанр: драма, мелодрама, военный, биография, история
Режиссер: Дурул Тайлан / Durul Taylan, Ягмур Тайлан / Yagmur Taylan
В ролях: Небахат Чехре /Nebahat Çehre/, Окан Ялабик /Okan Yalabik/, Сельма Эргеч /Selma Ergeç/, Халит Эргенч /Halit Ergenç/, Филиз Ахмет /Filiz Ahmet/

О фильме:
Сюжет основан на реальных событиях, произошедших во времена правления султана Сулеймана I, и расказывает о периоде жизни девушки Роксоланы, взятой в плен турками и названной Хюррем. Позже она стала первой официальной женой Сулеймана, но для этого ей пришлось пройти сложный путь…


2596b46dca752d9c9129de59c3a310ee.gif0ea106e52ded180eab4c071cfc21cb32.gif
Страна: Турция
Продолжительность: ~ 100 минут серия
Перевод: Профессиональный (полное дублирование) [ТК Домашний]

Файл
Кодек: XviD / MP3
Качество: SATRip
Видео: XviD, 704x400 (16:9), 25.000 fps, ~1700 kbps, ~0.250 bit/pixel
Звук: MP3, 48 kHz, 2 ch, ~128 kbps

Семпл

MediaInfo
Общее
Полное имя : F:Muhtesem.Yuzyil.s02.NewStudioMuhtesem.Yuzyil.s02e25.SATRip.NewStudio.TV.avi
Формат : AVI
Формат/Информация : Audio Video Interleave
Размер файла : 1,37 Гбайт
Продолжительность : 1 ч. 44 м.
Общий поток : 1875 Кбит/сек
Программа кодирования : VirtualDubMod 1.5.10.2 (build 2540/release)
Библиотека кодирования : VirtualDubMod build 2540/release

Видео
Идентификатор : 0
Формат : MPEG-4 Visual
Профиль формата : Advanced [email protected]
Параметр BVOP формата : 2
Параметр QPel формата : Нет
Параметр GMC формата : Без точки перехода
Параметр матрицы формата : Default (MPEG)
Идентификатор кодека : XVID
Идентификатор кодека/Подсказка : XviD
Продолжительность : 1 ч. 44 м.
Битрейт : 1738 Кбит/сек
Ширина : 704 пикс.
Высота : 400 пикс.
Соотношение сторон : 16:9
Частота кадров : 25,000 кадр/сек
Цветовое пространство : YUV
Подвыборка цветности : 4:2:0
Битовая глубина : 8 бит
Тип развёртки : Прогрессивная
Метод сжатия : С потерями
Бит/(Пиксели*Кадры) : 0.247
Размер потока : 1,26 Гбайт (93%)
Библиотека кодирования : XviD 64

Аудио
Идентификатор : 1
Формат : MPEG Audio
Версия формата : Version 1
Профиль формата : Layer 3
Режим : Joint stereo
Расширение режима : MS Stereo
Идентификатор кодека : 55
Идентификатор кодека/Подсказка : MP3
Продолжительность : 1 ч. 44 м.
Вид битрейта : Постоянный
Битрейт : 128 Кбит/сек
Каналы : 2 канала
Частота : 48,0 КГц
Метод сжатия : С потерями
Размер потока : 95,4 Мбайт (7%)
Выравнивание : Соединение по промежуткам
Продолжительность промежутка : 40 мс. (1,00 видеокадр)
Время предзагрузки промежутка : 504 ms
Библиотека кодирования : LAME3.90.3ЄЄЄ
Скриншоты
c7d80e2433675f78f4fa8c9fdedc54a0.png88078acafcd2dad9315175c9979fba30.png0f2c38579463bf26e12eb8ebe5931c50.png0c18619ae40050c63a7edcdb753d8e3b.pnga45b16aa17dcb182badfb43fd10d131b.png4e50fa6aef8c664347bf904989397933.png702ffe57eb751eebd24c45131d702da4.png46a3c401718265476f18e8df27d4361a.png65799025d5b2082137608d978932c28b.pnge044250df7c3aac09eebe50e2cdf00bb.pngf66d4c9d1b6327ff198dbd98438da0b4.pngc3562d6b1de36d4dbf3f5a0b97d3cb82.png
 

Вложения

  • 83,9 KB Просмотры: 0
    Личеров 0
    Сидеров 0
    Файлов 12
    Объем 16,4 GB
Ваш e-mail не будет опубликован. Он потребуется для подтверждения Вашего поста.
Оформление текста Нажмите «Ввод», чтобы отправить ответ.