За сегодня опубликовано 0 новых материалов.
Инструкция новичку Путеводитель по форуму Прокси для Telegram Показать подсказки , это бомба!

Скачать Валерий Ободзинский - Золотая Коллекция Ретро 2 CD (2004) APE by гаврила бесплатно через торрент

  • Получай до 480 рублей за каждого приглашенного пользователя!
    представляем Вам очередное расширение партнерской программы, подробности описаны тут -> ссылка
  • 90% материалов доступно к скачиванию после простой регистрации!
    Если же ты хочешь скачивать материалы без требования оставлять отзывы то получи группу "Новичок", 10 способов повышения описаны тут -> ссылка
  • К сожалению количество битых ссылок растет и мы уже не можем их оперативно восстанавливать поэтому просим помощи у каждого нашего пользователя.
    С сегодняшнего дня, за каждую восстановленную ссылку мы заплатим Вам.
    Подробнее тут -> ссылка
  • Перенесем твои заслуги с другого ресурса!
    Мы понимаем как сложно прокачивать аккаунты на форумах, вроде раскачал аккаунт, а тут появляется ресурс в 100 раз круче но тоже с системой прокачки и снова качать аккаунт...
    Предлагаем вам перенести Ваши заслуги на другом подобном ресурсе к нам.
    Подробности описаны тут -> ссылка
  • Вы можете получать по 2.5% с каждой покупки и продажи на маркете! Подробности в теме Партнёрская программа

Torrent_Bot

Торрент-Бот
Бот форума
4 Окт 2016
125
32
20
Трэклист:
1. Карнавал (К.Свобода - русск. текст О.Гаджикасимова)
2. Любовь возвратится к тебе (А.Нестеров - П.Леонидов)
3. Я верю (Миллер - русск. текст О.Гаджикасимова)
4. Только «да» (Б.Ренский - П.Леонидов)
5. Всё сбудется (Л.Рид - русск. текст О.Гаджикасимова)
6. Дом за углом (Э.Сломчинский - О.Гаджикасимов)
7. Играет орган (Д.Тухманов - М.Пляцковский)
8. Я возвращаюсь домой (вокализ) (А.Островский)
9. Заблудились, видно, соловьи (В.Орловецкий - Г.Меер)
10. Эти глаза напротив (Д.Тухманов - Т.Сашко)
11. Что-то случилось (А.Попп - русск. текст Д.Иванова)
12. Неотправленное письмо (С.Мелик - О.Гаджикасимов)
13. Так и будет (Б.Ренский - П.Леонидов)
14. Анжела (Паоли - русск текст Л.Дербенёва)
15. Праздничный ритм (Б.Горбульскис - Р.Скучайте)
16. Фиалки (П.Бюль-Бюль-оглы - О.Гаджикасимов)
17. Луна на Солнечном берегу (Б.Карадимчев - Д.Стойчев)
18. Спасибо тебе, море (С.Терентьев - О.Гаджикасимов)
19. Ты мне встретишься (П.Изотов - О.Гаджикасимов)

Трэклист:
1. Вечная весна (Д.Тухманов - И.Шаферан)
2. Мелодия (А.Пахмутова - Н.Добронравов)
3. Я ревную тебя (Н.Богословский - А.Поперечный)
4. Пойми меня (Н.Богословский - И.Кохановский)
5. Вечный вальс (Н.Богословский - И.Кохановский)
6. Наказание мое (Н.Богословский - И.Кохановский)
7. Олеандр (С.Влавианос - русск. текст О.Гаджикасимова)
8. Мне снится море (Братья Рахвани - русск. текст О.Гаджикасимова)
9. Где же ты? (Б.Уорд - русск. текст О.Гаджикасимова)
10. Мечтается людям (А.Богословский)
11. Сколько девчонок на свете (А.Зацепин - Л.Дербенёв)
12. Спасибо тебе за любовь (Л.Гарин - А.Поперечный)
13. Лишь вчера (Я.Френкель - И.Шаферан)
14. Встреча (А.Тартаковский - П.Леонидов)
15. Ты меня забыла (В.Дмитриев - М.Рябинин)
16. Мираж (А.Зацепин - Л.Дербенёв)
17. Восточная песня (Д.Тухманов - О.Гаджикасимов)
18. Любимая, спи (Д.Тухманов - Е.Евтушенко)
19. Дремлет море в ночи (Мильяччи - русск. текст Л.Дербенёва)

Жанр:Retro
Год выпуска диска: 2004
Производитель диска: Россия
Аудио кодек: APE
Тип рипа: image+.cue
Битрейт аудио: lossless
Продолжительность: 2ч 09м 14с

Exact Audio Copy V0.99 prebeta 4 from 23. January 2008
Отчёт EAC об извлечении, выполненном 25. августа 2008, 0:43
Валерий Ободзинский / Золотая Коллекция ретро CD1
Дисковод: Optiarc DVD RW AD-5170A Adapter: 0 ID: 0
Режим чтения : Достоверность
Использование точного потока : Да
Отключение кэша аудио : Да
Использование указателей C2 : Нет
Коррекция смещения при чтении : 48
Способность читать области Lead-in и Lead-out : Нет
Заполнение пропущенных сэмплов тишиной : Да
Удаление блоков с тишиной в начале и конце : Нет
При вычислениях CRC использовались нулевые сэмплы : Да
Интерфейс : Встроенный Win32-интерфейс для Win NT/2000
Выходной формат : Внутренние WAV-операции
Формат сэмплов : 44.100 Гц; 16 бит; стерео
TOC извлечённого CD
Трек | Старт | Длительность | Начальный сектор | Конечный сектор
---------------------------------------------------------------------
1 | 0:00.00 | 3:04.03 | 0 | 13802
2 | 3:04.03 | 3:21.13 | 13803 | 28890
3 | 6:25.16 | 2:15.44 | 28891 | 39059
4 | 8:40.60 | 4:25.73 | 39060 | 59007
5 | 13:06.58 | 3:00.50 | 59008 | 72557
6 | 16:07.33 | 3:45.02 | 72558 | 89434
7 | 19:52.35 | 5:28.38 | 89435 | 114072
8 | 25:20.73 | 2:56.48 | 114073 | 127320
9 | 28:17.46 | 3:31.61 | 127321 | 143206
10 | 31:49.32 | 3:30.26 | 143207 | 158982
11 | 35:19.58 | 3:11.61 | 158983 | 173368
12 | 38:31.44 | 3:19.62 | 173369 | 188355
13 | 41:51.31 | 2:45.59 | 188356 | 200789
14 | 44:37.15 | 2:52.70 | 200790 | 213759
15 | 47:30.10 | 1:47.39 | 213760 | 221823
16 | 49:17.49 | 3:31.16 | 221824 | 237664
17 | 52:48.65 | 3:42.19 | 237665 | 254333
18 | 56:31.09 | 2:35.02 | 254334 | 265960
19 | 59:06.11 | 3:23.53 | 265961 | 281238
Характеристики диапазона извлечения и сообщения об ошибках
Выбранный диапазон
Имя файла D:AudioВ.ОбодзинскийЗ.К.Р.-2004CD1Валерий Ободзинский - Золотая Коллекция ретро CD1.wav
Пиковый уровень 75.4 %
Качество диапазона 99.5 %
CRC копии B8942DEB
Копирование... OK
Ошибок не произошло
Конец отчёта
Exact Audio Copy V0.99 prebeta 4 from 23. January 2008
Отчёт EAC об извлечении, выполненном 25. августа 2008, 1:08
Валерий Ободзинский / Золотая коллекция ретро CD2
Дисковод: Optiarc DVD RW AD-5170A Adapter: 0 ID: 0
Режим чтения : Достоверность
Использование точного потока : Да
Отключение кэша аудио : Да
Использование указателей C2 : Нет
Коррекция смещения при чтении : 48
Способность читать области Lead-in и Lead-out : Нет
Заполнение пропущенных сэмплов тишиной : Да
Удаление блоков с тишиной в начале и конце : Нет
При вычислениях CRC использовались нулевые сэмплы : Да
Интерфейс : Встроенный Win32-интерфейс для Win NT/2000
Выходной формат : Внутренние WAV-операции
Формат сэмплов : 44.100 Гц; 16 бит; стерео
TOC извлечённого CD
Трек | Старт | Длительность | Начальный сектор | Конечный сектор
---------------------------------------------------------------------
1 | 0:00.00 | 3:25.26 | 0 | 15400
2 | 3:25.26 | 4:22.52 | 15401 | 35102
3 | 7:48.03 | 2:37.06 | 35103 | 46883
4 | 10:25.09 | 2:58.74 | 46884 | 60307
5 | 13:24.08 | 3:22.20 | 60308 | 75477
6 | 16:46.28 | 2:33.57 | 75478 | 87009
7 | 19:20.10 | 3:50.32 | 87010 | 104291
8 | 23:10.42 | 2:45.58 | 104292 | 116724
9 | 25:56.25 | 5:34.62 | 116725 | 141836
10 | 31:31.12 | 3:24.18 | 141837 | 157154
11 | 34:55.30 | 3:03.19 | 157155 | 170898
12 | 37:58.49 | 4:09.59 | 170899 | 189632
13 | 42:08.33 | 3:06.57 | 189633 | 203639
14 | 45:15.15 | 3:40.13 | 203640 | 220152
15 | 48:55.28 | 3:53.22 | 220153 | 237649
16 | 52:48.50 | 3:34.22 | 237650 | 253721
17 | 56:22.72 | 3:31.35 | 253722 | 269581
18 | 59:54.32 | 3:55.66 | 269582 | 287272
19 | 63:50.23 | 2:55.47 | 287273 | 300444
Характеристики диапазона извлечения и сообщения об ошибках
Выбранный диапазон
Имя файла D:AudioВ.ОбодзинскийЗ.К.Р.-2004CD2Валерий Ободзинский - Золотая коллекция ретро CD2.wav
Пиковый уровень 96.5 %
Качество диапазона 100.0 %
CRC копии 320FAEC0
Копирование... OK
Ошибок не произошло
Конец отчёта
 

Вложения

  • 15,9 KB Просмотры: 0
    Личеров 0
    Сидеров 0
    Файлов 12
    Объем 680,1 MB
Ваш e-mail не будет опубликован. Он потребуется для подтверждения Вашего поста.
Оформление текста Нажмите «Ввод», чтобы отправить ответ.