За сегодня опубликовано 18 новых материалов.
Инструкция новичку Путеводитель по форуму Прокси для Telegram Показать подсказки , это бомба!

Скачать В той стране (1997) DVDRip-AVC от KORSAR бесплатно через торрент

  • Получай до 480 рублей за каждого приглашенного пользователя!
    представляем Вам очередное расширение партнерской программы, подробности описаны тут -> ссылка
  • 90% материалов доступно к скачиванию после простой регистрации!
    Если же ты хочешь скачивать материалы без требования оставлять отзывы то получи группу "Новичок", 10 способов повышения описаны тут -> ссылка
  • К сожалению количество битых ссылок растет и мы уже не можем их оперативно восстанавливать поэтому просим помощи у каждого нашего пользователя.
    С сегодняшнего дня, за каждую восстановленную ссылку мы заплатим Вам.
    Подробнее тут -> ссылка
  • Перенесем твои заслуги с другого ресурса!
    Мы понимаем как сложно прокачивать аккаунты на форумах, вроде раскачал аккаунт, а тут появляется ресурс в 100 раз круче но тоже с системой прокачки и снова качать аккаунт...
    Предлагаем вам перенести Ваши заслуги на другом подобном ресурсе к нам.
    Подробности описаны тут -> ссылка
  • Вы можете получать по 2.5% с каждой покупки и продажи на маркете! Подробности в теме Партнёрская программа
Если Вы не хотите скачивать, Вы всегда можете посмотреть онлайн, просто нажмите кнопку ниже :

Открыть плеер

Torrent_Bot

Торрент-Бот
Бот форума
4 Окт 2016
125
32
20

В той стране
Информация о фильме
Жанр: драма
Год выпуска: 1997
Режиссер: Лидия Боброва
В ролях: Елена Андреева, Владимир Борчанинов, Зоя Буряк, Галина Волкова, Дмитрий Вороницын, Светлана Гайтан, Андрей Дунаев, Татьяна Захарова, Дмитрий Клопов, Варвара Клопова, Анна Овсянникова, Лидия Савченко, Александр Стахеев

О фильме:
Фильм задуман и реализован как наблюдение за реальной жизнью. Та страна — это северная деревня (а в данном случае — Веркола), российская глубинка с тем же бытом, что и сто лет назад. Только электричество, радио и телевизор выявляют признаки настоящего времени. А руки, как и прежде, кормят скотину, достают «журавлем» воду из колодца, полощут в проруби белье, летом заготавливают корм, строят. Женщины в Верколе, как и везде, заканчивают школу, идут в доярки, выходят замуж, рожают. Здесь каждый на виду, все знают друг друга, и каждый знает, кто чего стоит. Труд занимает всю жизнь. На раздумья о Боге и душе — нет времени (монастырь — на другом берегу Пинеги). Только иногда кто-то, пораженный ясностью красоты, остановится и притихнет, да мудрые алкаши в очередной раз зададут на могиле друга вопрос: куда уходит человек после смерти. В той стране рождаются и умирают люди, ненависти противостоит любовь, жестокости — доброта. Бескорыстие черпает силу в труде и побеждает подлость.



Страна: Россия
Производство: Ленфильм, Народный фильм, Роскомкино
Продолжительность: 01:24:49
Перевод: Не требуется

Файл
Формат: MKV
Качество: DVDRip-AVC
Видео: MPEG-4 AVC, [email protected], 25 fps, 3367 Кбит/с
Аудио: Русский, AC3, 6 ch, 384 Кбит/с
Cубтитры: нет
Навигация по главам: есть

Mediainfo
x264 [info]: frame I:672 Avg QP:17.00 size: 89713
x264 [info]: frame P:41446 Avg QP:18.15 size: 37443
x264 [info]: frame B:85104 Avg QP:21.61 size: 6226
x264 [info]: consecutive B-frames: 9.8% 8.6% 20.3% 14.5% 26.4% 19.2% 1.1% 0.2% 0.1% 0.0% 0.0%

General
Unique ID : 195674309637551882865888735573900690963 (0x933580507780F91FD030A55360BE8613)
Complete name : S:FILMSВ той стране (1997) DVDRip-AVC - KORSAR.mkv
Format : Matroska
Format version : Version 4 / Version 2
File size : 2.22 GiB
Duration : 1 h 24 min
Overall bit rate : 3 753 kb/s
Movie name : / В той стране (1997)_rip_by_Cthulhu
Encoded date : UTC 2019-04-17 15:37:34
Writing application : mkvmerge v28.2.0 ('The Awakening') 64-bit
Writing library : libebml v1.3.6 + libmatroska v1.4.9
Cover : Yes
Attachments : cover.jpg

Video
ID : 1
Format : AVC
Format/Info : Advanced Video Codec
Format profile : [email protected]
Format settings, CABAC : Yes
Format settings, RefFrames : 13 frames
Codec ID : V_MPEG4/ISO/AVC
Duration : 1 h 24 min
Bit rate : 3 367 kb/s
Width : 690 pixels
Height : 474 pixels
Display aspect ratio : 16:10
Frame rate mode : Constant
Frame rate : 25.000 FPS
Color space : YUV
Chroma subsampling : 4:2:0
Bit depth : 8 bits
Scan type : Progressive
Bits/(Pixel*Frame) : 0.412
Stream size : 1.99 GiB (90%)
Writing library : x264 core 152 r2851kMod ba24899
Encoding settings : cabac=1 / ref=13 / deblock=1:-1:-1 / analyse=0x3:0x133 / me=umh / subme=11 / psy=1 / fade_compensate=0.00 / psy_rd=1.00:0.15 / mixed_ref=1 / me_range=48 / chroma_me=1 / trellis=2 / 8x8dct=1 / cqm=0 / deadzone=21,11 / fast_pskip=1 / chroma_qp_offset=-3 / threads=15 / lookahead_threads=3 / sliced_threads=0 / nr=0 / decimate=1 / interlaced=0 / bluray_compat=0 / constrained_intra=0 / bframes=10 / b_pyramid=2 / b_adapt=2 / b_bias=0 / direct=3 / weightb=1 / open_gop=0 / weightp=2 / keyint=250 / keyint_min=25 / scenecut=40 / intra_refresh=0 / rc_lookahead=60 / rc=crf / mbtree=0 / crf=18.0000 / qcomp=0.62 / qpmin=0 / qpmax=39 / qpstep=4 / vbv_maxrate=50000 / vbv_bufsize=62500 / crf_max=0.0 / nal_hrd=none / filler=0 / ip_ratio=1.40 / pb_ratio=1.30 / aq=3:0.80
Language : Russian
Default : Yes
Forced : No
Color range : Limited
Color primaries : BT.601 PAL
Transfer characteristics : BT.470 System B, BT.470 System G
Matrix coefficients : BT.601

Audio
ID : 2
Format : AC-3
Format/Info : Audio Coding 3
Mode extension : CM (complete main)
Format settings, Endianness : Big
Codec ID : A_AC3
Duration : 1 h 24 min
Bit rate mode : Constant
Bit rate : 384 kb/s
Channel(s) : 6 channels
Channel positions : Front: L C R, Side: L R, LFE
Sampling rate : 48.0 kHz
Frame rate : 31.250 FPS (1536 spf)
Compression mode : Lossy
Stream size : 233 MiB (10%)
Language : Russian
Default : Yes
Forced : No

Menu
00:00:00.000 : en:Chapter 1
00:07:24.480 : en:Chapter 2
00:13:47.880 : en:Chapter 3
00:19:18.240 : en:Chapter 4
00:25:50.640 : en:Chapter 5
00:32:38.760 : en:Chapter 6
00:38:34.920 : en:Chapter 7
00:45:11.760 : en:Chapter 8
00:51:41.400 : en:Chapter 9
00:58:58.440 : en:Chapter 10
01:07:41.160 : en:Chapter 11
01:17:47.160 : en:Chapter 12
01:24:48.480 : en:Chapter 13
Скриншоты

Релиз от: Cthulhu
 

Вложения

  • 12,1 KB Просмотры: 0
    Личеров 0
    Сидеров 0
    Файлов 1
    Объем 2,2 GB
Ваш e-mail не будет опубликован. Он потребуется для подтверждения Вашего поста.
Оформление текста Нажмите «Ввод», чтобы отправить ответ.