За сегодня опубликовано 13 новых материалов.
Инструкция новичку Путеводитель по форуму Прокси для Telegram Показать подсказки , это бомба!

Скачать В поисках Стива Маккуина / Finding Steve McQueen (2018) WEB-DLRip | HDRezka Studio бесплатно через торрент

  • Получай до 480 рублей за каждого приглашенного пользователя!
    представляем Вам очередное расширение партнерской программы, подробности описаны тут -> ссылка
  • 90% материалов доступно к скачиванию после простой регистрации!
    Если же ты хочешь скачивать материалы без требования оставлять отзывы то получи группу "Новичок", 10 способов повышения описаны тут -> ссылка
  • К сожалению количество битых ссылок растет и мы уже не можем их оперативно восстанавливать поэтому просим помощи у каждого нашего пользователя.
    С сегодняшнего дня, за каждую восстановленную ссылку мы заплатим Вам.
    Подробнее тут -> ссылка
  • Перенесем твои заслуги с другого ресурса!
    Мы понимаем как сложно прокачивать аккаунты на форумах, вроде раскачал аккаунт, а тут появляется ресурс в 100 раз круче но тоже с системой прокачки и снова качать аккаунт...
    Предлагаем вам перенести Ваши заслуги на другом подобном ресурсе к нам.
    Подробности описаны тут -> ссылка
  • Вы можете получать по 2.5% с каждой покупки и продажи на маркете! Подробности в теме Партнёрская программа
Если Вы не хотите скачивать, Вы всегда можете посмотреть онлайн, просто нажмите кнопку ниже :

Открыть плеер

Torrent_Bot

Торрент-Бот
Бот форума
4 Окт 2016
125
32
20



Информация о фильме
Название: В поисках Стива Маккуина
Оригинальное название: Finding Steve McQueen
Год выпуска: 2018
Жанр:Криминал, мелодрама
Режиссер: Марк Стивен Джонсон
В ролях: Трэвис Фиммел, Уильям Фихтнер, Рэйчел Тейлор, Форест Уитакер, Лили Рэйб, Джейк Вири, Рис Койро, Джон Финн, Луис Ломбарди, Джоя Либардони

О фильме: Действия фильма происходят в 1972 году накануне очередных выборов президента США. Шайка преступников решает совершить ограбление века и завладеть незаконным предвыборным фондом Ричарда Никсона. На кону оказывается огромная сумма в тридцать миллионов долларов. Чтобы добиться успеха, преступникам необходимо продумать каждый свой шаг, каждое дыхание. Им удается придумать безупречный план, но в момент проведения операции, в дело вмешивается его величество случай и преступники оказываются в очень сложном положении. Теперь они готовы сделать все, чтобы не попасть в руки полиции.



Выпущено: США, AMBI Group, BondIt Media Capital, Identity Films
Продолжительность: 01:31:46
Перевод: Профессиональный (многоголосый, закадровый) | HDRezka Studio

Файл
Качество: WEB-DLRip
Формат: AVI
Видео: 720x384 (1.88:1), 23.976 fps, XviD build 73 ~2069 kbps avg, 0.31 bit/pixel
Аудио: 48 kHz, AC3 Dolby Digital, 2/0 (L,R) ch, ~192 kbps
Субтитры: Нет

Скриншоты
MediaInfo
Формат : AVI
Формат/Информация : Audio Video Interleave
Размер файла : 1,46 Гбайт
Продолжительность : 1 ч. 31 м.
Общий поток : 2271 Кбит/сек
Программа кодирования : VirtualDubMod 1.5.10.3
Библиотека кодирования : VirtualDubMod build 2550/release

Видео
Идентификатор : 0
Формат : MPEG-4 Visual
Профиль формата : Advanced [email protected]
Настройки формата : BVOP1 / Custom Matrix
Параметр BVOP формата : 1
Параметр QPel формата : Нет
Параметр GMC формата : Без точки перехода
Параметр матрицы формата : Выборочная
Идентификатор кодека : XVID
Идентификатор кодека/Подсказка : XviD
Продолжительность : 1 ч. 31 м.
Битрейт : 2069 Кбит/сек
Ширина : 720 пикселей
Высота : 384 пикселя
Соотношение сторон : 1,85:1
Частота кадров : 23,976 (24000/1001) кадра/сек
Цветовое пространство : YUV
Субдискретизация насыщенности : 4:2:0
Битовая глубина : 8 бит
Тип развёртки : Прогрессивная
Метод сжатия : С потерями
Бит/(Пиксели*Кадры) : 0.312
Размер потока : 1,33 Гбайт (91%)
Библиотека кодирования : XviD 73

Аудио
Идентификатор : 1
Формат : AC-3
Формат/Информация : Audio Coding 3
Коммерческое название : Dolby Digital
Идентификатор кодека : 2000
Продолжительность : 1 ч. 31 м.
Вид битрейта : Постоянный
Битрейт : 192 Кбит/сек
Каналы : 2 канала
Channel layout : L R
Частота : 48,0 КГц
Частота кадров : 31,250 кадров/сек (1536 SPF)
Битовая глубина : 16 бит
Метод сжатия : С потерями
Размер потока : 126 Мбайт (8%)
Выравнивание : Разделение по промежуткам
Продолжительность промежутка : 42 мс. (1,00 видеокадр)
Время предзагрузки промежутка : 500 мс.
 

Вложения

  • 15,5 KB Просмотры: 0
    Личеров 0
    Сидеров 0
    Файлов 1
    Объем 1,5 GB
Ваш e-mail не будет опубликован. Он потребуется для подтверждения Вашего поста.
Оформление текста Нажмите «Ввод», чтобы отправить ответ.