За сегодня опубликовано 0 новых материалов.
Инструкция новичку Путеводитель по форуму Прокси для Telegram Показать подсказки , это бомба!

Скачать Тысяча лиц Дуньцзя / Qi men Dunjia (2017) BDRip 1080p от Ash61 | 3D-Video | halfOU | L2 бесплатно через торрент

  • Получай до 480 рублей за каждого приглашенного пользователя!
    представляем Вам очередное расширение партнерской программы, подробности описаны тут -> ссылка
  • 90% материалов доступно к скачиванию после простой регистрации!
    Если же ты хочешь скачивать материалы без требования оставлять отзывы то получи группу "Новичок", 10 способов повышения описаны тут -> ссылка
  • К сожалению количество битых ссылок растет и мы уже не можем их оперативно восстанавливать поэтому просим помощи у каждого нашего пользователя.
    С сегодняшнего дня, за каждую восстановленную ссылку мы заплатим Вам.
    Подробнее тут -> ссылка
  • Перенесем твои заслуги с другого ресурса!
    Мы понимаем как сложно прокачивать аккаунты на форумах, вроде раскачал аккаунт, а тут появляется ресурс в 100 раз круче но тоже с системой прокачки и снова качать аккаунт...
    Предлагаем вам перенести Ваши заслуги на другом подобном ресурсе к нам.
    Подробности описаны тут -> ссылка
  • Вы можете получать по 2.5% с каждой покупки и продажи на маркете! Подробности в теме Партнёрская программа
Если Вы не хотите скачивать, Вы всегда можете посмотреть онлайн, просто нажмите кнопку ниже :

Открыть плеер

Torrent_Bot

Торрент-Бот
Бот форума
4 Окт 2016
125
32
20
Тысяча лиц Дуньцзя
Qi men Dunjia
The Thousand Faces of Dunjia


Год выпуска: 2017
Страна: Китай, Гонконг (Acme Image, Film Can Production Ltd., Le Vision Pictures, Gravity Pictures, Shanghai Yoozoo, ...)
Жанр: боевик, фэнтези
Продолжительность: 01:52:40

Перевод: Любительский (двухголосый закадровый) - East Dream

Режиссер: Юэнь Ву-Пин / Yuen Woo-Ping
Автор сценария и продюсер: Цуй Харк / Tsui Hark



В ролях: Da Peng (Жугэ), Ni Ni (Стрекоза), Aarif Lee (Дао), Zhou Dongyu (Кружок), Wu Bai (Старший Брат), Ada Liu, Tiger Xu, Yang Yiwei, Xie Miao, Sun Mingming



Описание: Испокон веков члены клана Уинь защищали Землю от вторжения монстров из других миров. Теперь им предстоит серьёзная битва с захватчиком и его пробуждённым сородичем, а этот тандем практически неуязвим. Один из членов клана обнаруживает заточённую в тюрьме загадочную девушку без прошлого. Она, а также юный констебль, случайно ввязавшийся в эту битву, могут помочь клану Уинь одержать победу.



Доп. инфо: Перевод оставляет желать лучшего, но другого не встречал.
Внимание, высокий битрейт - у некоторых могут быть проблемы с воспроизведением!



Премьера (мир): 14 декабря 2017




Качество: BDRip (by Ash61 from BD 3D Chi)
Контейнер: MKV
Формат 3D: Half OverUnder / Вертикальная анаморфная стереопара
Порядок ракурсов: левый ракурс первый



Видео: AVC / 1920х1080p / 23,976 fps / 23.0 Mbps

Аудио:
#1 - Русский / AC3 / 48 KHz / 5.1 ch / 640 Kbps (DVO - East Dream) (перемонтаж - Ash61)
#2 - Китайский / AC3 / 48 KHz / 5.1 ch / 640 Kbps (Original - BD 3D)

Субтитры: Внешние (SRT UTF-8) English Full [BD 3D Chi]

MediaInfo
General
Unique ID : 220682901624149298925037563713103964990 (0xA605FB18AC235CEFBF765213EF95AB3E)
Complete name : D:QimenDunjia(2017)3D-halfOU(Ash61)DVOQimenDunjia(2017)3D-halfOU(Ash61)DVO.mkv
Format : Matroska
Format version : Version 2
File size : 19.1 GiB
Duration : 1h 52mn
Overall bit rate : 24.3 Mbps
Movie name : Тысяча лиц Дуньцзя / Qi men Dunjia / The Thousand Faces of Dunjia (2017) in 3D
Encoded date : UTC 2018-10-15 09:46:24
Writing application : mkvmerge v5.8.0 ('No Sleep / Pillow') built on Sep 2 2012 15:37:04
Writing library : libebml v1.2.3 + libmatroska v1.3.0

Video
ID : 1
Format : AVC
Format/Info : Advanced Video Codec
Format profile : [email protected]
Format settings, CABAC : Yes
Format settings, ReFrames : 4 frames
Codec ID : V_MPEG4/ISO/AVC
Duration : 1h 52mn
Bit rate : 23.0 Mbps
Width : 1 920 pixels
Height : 1 080 pixels
Display aspect ratio : 16:9
Frame rate mode : Constant
Frame rate : 23.976 (24000/1001) fps
Color space : YUV
Chroma subsampling : 4:2:0
Bit depth : 8 bits
Scan type : Progressive
Bits/(Pixel*Frame) : 0.463
Stream size : 17.7 GiB (93%)
Title : BDRip by Ash61
Writing library : x264 core 146 r2538 121396c
Encoding settings : cabac=1 / ref=4 / deblock=1:-3:-3 / analyse=0x3:0x113 / me=umh / subme=10 / psy=1 / psy_rd=1.00:0.00 / mixed_ref=1 / me_range=32 / chroma_me=1 / trellis=2 / 8x8dct=1 / cqm=0 / deadzone=21,11 / fast_pskip=0 / chroma_qp_offset=-2 / threads=12 / lookahead_threads=2 / sliced_threads=0 / nr=0 / decimate=0 / interlaced=0 / bluray_compat=0 / constrained_intra=0 / bframes=9 / b_pyramid=2 / b_adapt=2 / b_bias=0 / direct=3 / weightb=1 / open_gop=0 / weightp=2 / keyint=250 / keyint_min=23 / scenecut=40 / intra_refresh=0 / rc_lookahead=60 / rc=2pass / mbtree=0 / bitrate=23000 / ratetol=1.0 / qcomp=0.70 / qpmin=0 / qpmax=69 / qpstep=4 / cplxblur=20.0 / qblur=0.5 / vbv_maxrate=40000 / vbv_bufsize=30000 / nal_hrd=none / filler=0 / frame-packing=4 / ip_ratio=1.40 / pb_ratio=1.30 / aq=1:0.70
Language : Chinese
Default : Yes
Forced : No

Audio #1
ID : 2
Format : AC-3
Format/Info : Audio Coding 3
Mode extension : CM (complete main)
Format settings, Endianness : Big
Codec ID : A_AC3
Duration : 1h 52mn
Bit rate mode : Constant
Bit rate : 640 Kbps
Channel(s) : 6 channels
Channel positions : Front: L C R, Side: L R, LFE
Sampling rate : 48.0 KHz
Frame rate : 31.250 fps (1536 spf)
Compression mode : Lossy
Stream size : 516 MiB (3%)
Title : DVO - East Dream (перемонтаж - Ash61)
Language : Russian
Default : Yes
Forced : No

Audio #2
ID : 3
Format : AC-3
Format/Info : Audio Coding 3
Mode extension : CM (complete main)
Format settings, Endianness : Big
Codec ID : A_AC3
Duration : 1h 52mn
Bit rate mode : Constant
Bit rate : 640 Kbps
Channel(s) : 6 channels
Channel positions : Front: L C R, Side: L R, LFE
Sampling rate : 48.0 KHz
Frame rate : 31.250 fps (1536 spf)
Compression mode : Lossy
Stream size : 516 MiB (3%)
Title : Original (BD 3D Chi)
Language : Chinese
Default : No
Forced : No

Menu
00:00:00.000 : :1
00:05:54.312 : :2
00:09:08.089 : :3
00:14:16.647 : :4
00:20:13.295 : :5
00:28:26.330 : :6
00:39:10.265 : :7
00:44:35.339 : :8
00:48:14.183 : :9
00:53:02.388 : :10
01:01:55.295 : :11
01:06:59.098 : :12
01:11:56.771 : :13
01:17:46.704 : :14
01:25:04.141 : :15
01:27:55.729 : :16
01:36:03.091 : :17
01:38:35.326 : :18
01:43:15.022 : :19
01:46:57.494 : :20
Скриншоты
Для оценки 3Д - Анимированные скриныКаталог фильмов, выходивших в 3Д, со ссылками (вер. 24.07.2018)



О форматах и методах просмотра 3D
 

Вложения

  • 96,5 KB Просмотры: 0
    Личеров 0
    Сидеров 0
    Файлов 2
    Объем 19,1 GB
Ваш e-mail не будет опубликован. Он потребуется для подтверждения Вашего поста.
Оформление текста Нажмите «Ввод», чтобы отправить ответ.