За последнюю неделю опубликовано 42 новых материалов.
Инструкция новичку Путеводитель по форуму Прокси для Telegram Показать подсказки , это бомба!

Туманы Авалона / The Mists of Avalon (2001) DVDRip-AVC | D

  • Поучаствуй (в качестве покупателя) в любых пяти совместных покупках (кроме завершённых и "Моментальных") и получи группу "Новичок" навсегда -> ссылка на раздел
  • Получай до 480 рублей за каждого приглашенного пользователя!
    представляем Вам очередное расширение партнерской программы, подробности описаны тут -> ссылка
  • 90% материалов доступно к скачиванию после простой регистрации!
    Если же ты хочешь скачивать материалы без требования оставлять отзывы то получи группу "Новичок", 10 способов повышения описаны тут -> ссылка
  • К сожалению количество битых ссылок растет и мы уже не можем их оперативно восстанавливать поэтому просим помощи у каждого нашего пользователя.
    С сегодняшнего дня, за каждую восстановленную ссылку мы заплатим Вам.
    Подробнее тут -> ссылка
  • Перенесем твои заслуги с другого ресурса!
    Мы понимаем как сложно прокачивать аккаунты на форумах, вроде раскачал аккаунт, а тут появляется ресурс в 100 раз круче но тоже с системой прокачки и снова качать аккаунт...
    Предлагаем вам перенести Ваши заслуги на другом подобном ресурсе к нам.
    Подробности описаны тут -> ссылка
  • Вы можете получать по 2.5% с каждой покупки и продажи на маркете! Подробности в теме Партнёрская программа
Если Вы не хотите скачивать, Вы всегда можетепосмотретьонлайн, просто нажмите кнопку ниже :

Открыть плеер

Torrent_Bot

Торрент-Бот
Бот форума
4 Окт 2016
125
65
20

Название: Туманы Авалона
Оригинальное название: The Mists of Avalon
Год выхода: 2001

Страна: Чехия, Германия, США
Студия: Constantin Film, Stillking Films, TNT
Продолжительность: 03:03:11
Жанр: фэнтези, драма

Режиссер: Ули Эдель
В ролях: Джулианна Маргулис, Анджелика Хьюстон, Джоан Аллен, Саманта Мэтис, Кэролайн Гудолл, Эдвард Аттертон, Майкл Вартан, Майкл Бирн, Ганс Мэтисон, Марк Льюис Джонс, ...

Перевод: профессиональный (дублированный) Мост-Видео

О фильме: Туманы Авалона дает версию легенды о короле Артуре, рассказанную женщинами, которые творили события с помощью магической силы. Верховная жрица Вивиана, Госпожа Озера, полна решимости сохранить волшебную мощь Авалона. Моргане уготована роль наследницы Вивианы. Моргоза одержима идеей прочертить линию престолонаследия к себе. От этих трех женщин зависит будущее нации. Пока оно скрыто в тумане…






Кодек: x264
Качество: DVDRip-AVC
Видео: 852x480, 3000 kbps, 23,976 fps
Аудио #1: AC-3, 2 ch, 192 kbps (Rus) - Dub Мост-Видео
Аудио #2: AC-3, 6 ch, 384 kbps (Eng)
Субтитры: английские

Дополнительная информация
За исходник спасибо - ilya_l

Спасибо edich2 и Воронеж-1 за представленную оцифровку лицензионной VHS, откуда и был взят полный стерео дубляж.
MediaInfo
x264 [info]: frame I:2021 Avg QP:15.82 size: 53660
x264 [info]: frame P:51916 Avg QP:18.41 size: 29064
x264 [info]: frame B:209591 Avg QP:20.35 size: 11946
x264 [info]: consecutive B-frames: 1.6% 1.8% 7.0% 8.4% 7.7% 67.0% 4.0% 0.6% 0.6% 0.4% 0.2% 0.6% 0.2%

Общее
Уникальный идентификатор : 191955176334626114779772757154634706054 (0x906938E2A4A078A4AA2B02299630AC86)
Полное имя : Туманы Авалона (The Mists of Avalon) 2001 DVDRip.mkv
Формат : Matroska
Версия формата : Version 2
Размер файла : 4,58 Гбайт
Продолжительность : 3 ч. 3 м.
Общий поток : 3578 Кбит/сек
Дата кодирования : UTC 2018-11-27 20:35:38
Программа кодирования : mkvmerge v4.0.0 ('The Stars were mine') сборка от Jun 6 2010 16:18:42
Библиотека кодирования : libebml v1.0.0 + libmatroska v1.0.0

Видео
Идентификатор : 1
Формат : AVC
Формат/Информация : Advanced Video Codec
Профиль формата : [email protected]
Параметр CABAC формата : Да
Параметр ReFrames формата : 10 кадров
Идентификатор кодека : V_MPEG4/ISO/AVC
Продолжительность : 3 ч. 3 м.
Битрейт : 3000 Кбит/сек
Ширина : 852 пикселя
Высота : 480 пикселей
Соотношение сторон : 16:9
Режим частоты кадров : Постоянный
Частота кадров : 23,976 (24000/1001) кадра/сек
Цветовое пространство : YUV
Субдискретизация насыщенности : 4:2:0
Битовая глубина : 8 бит
Тип развёртки : Прогрессивная
Бит/(Пиксели*Кадры) : 0.306
Размер потока : 3,75 Гбайт (82%)
Библиотека кодирования : x264 core 146 r2538 121396c
Настройки программы : cabac=1 / ref=10 / deblock=1:-1:-1 / analyse=0x3:0x133 / me=umh / subme=11 / psy=1 / psy_rd=1.00:0.00 / mixed_ref=1 / me_range=32 / chroma_me=1 / trellis=2 / 8x8dct=1 / cqm=0 / deadzone=21,11 / fast_pskip=0 / chroma_qp_offset=-2 / threads=12 / lookahead_threads=2 / sliced_threads=0 / nr=0 / decimate=0 / interlaced=0 / bluray_compat=0 / constrained_intra=0 / bframes=12 / b_pyramid=2 / b_adapt=2 / b_bias=0 / direct=3 / weightb=1 / open_gop=0 / weightp=2 / keyint=240 / keyint_min=23 / scenecut=40 / intra_refresh=0 / rc=2pass / mbtree=0 / bitrate=3000 / ratetol=1.0 / qcomp=0.60 / qpmin=0 / qpmax=69 / qpstep=4 / cplxblur=20.0 / qblur=0.5 / ip_ratio=1.40 / pb_ratio=1.30 / aq=3:0.80
Язык : English
Default : Нет
Forced : Нет

Аудио #1
Идентификатор : 2
Формат : AC-3
Формат/Информация : Audio Coding 3
Расширение режима : CM (complete main)
Параметр Endianness формата : Big
Идентификатор кодека : A_AC3
Продолжительность : 3 ч. 3 м.
Вид битрейта : Постоянный
Битрейт : 192 Кбит/сек
Каналы : 2 канала
Расположение каналов : Front: L R
Частота : 48,0 КГц
Частота кадров : 31,250 кадров/сек (1536 spf)
Метод сжатия : С потерями
Размер потока : 252 Мбайт (5%)
Заголовок : Dub Мост-Видео
Язык : Russian
Default : Нет
Forced : Нет

Аудио #2
Идентификатор : 3
Формат : AC-3
Формат/Информация : Audio Coding 3
Расширение режима : CM (complete main)
Параметр Endianness формата : Big
Идентификатор кодека : A_AC3
Продолжительность : 3 ч. 3 м.
Вид битрейта : Постоянный
Битрейт : 384 Кбит/сек
Каналы : 6 каналов
Расположение каналов : Front: L C R, Side: L R, LFE
Частота : 48,0 КГц
Частота кадров : 31,250 кадров/сек (1536 spf)
Метод сжатия : С потерями
Размер потока : 503 Мбайт (11%)
Язык : English
Default : Нет
Forced : Нет

Текст
Идентификатор : 4
Формат : UTF-8
Идентификатор кодека : S_TEXT/UTF8
Идентификатор кодека/Информация : UTF-8 Plain Text
Язык : English
Default : Нет
Forced : Нет

Меню
00:00:00.083 : en:Chapter 01
00:02:25.128 : en:Chapter 02
00:06:47.807 : en:Chapter 03
00:09:42.148 : en:Chapter 04
00:13:36.215 : en:Chapter 05
00:17:48.967 : en:Chapter 06
00:21:22.814 : en:Chapter 07
00:26:37.963 : en:Chapter 08
00:29:52.157 : en:Chapter 09
00:34:09.580 : en:Chapter 10
00:37:50.635 : en:Chapter 11
00:42:09.059 : en:Chapter 12
00:43:49.159 : en:Chapter 13
00:45:55.953 : en:Chapter 14
00:50:14.544 : en:Chapter 15
00:56:00.724 : en:Chapter 16
00:58:29.906 : en:Chapter 17
01:00:43.956 : en:Chapter 18
01:03:48.357 : en:Chapter 19
01:06:59.715 : en:Chapter 20
01:09:57.393 : en:Chapter 21
01:12:49.398 : en:Chapter 22
01:14:24.827 : en:Chapter 23
01:18:53.729 : en:Chapter 24
01:23:09.634 : en:Chapter 25
01:26:04.192 : en:Chapter 26
01:29:44.412 : en:Chapter 27
01:32:45.960 : en:Chapter 28
01:36:06.127 : en:Chapter 29
01:38:41.448 : en:Chapter 30
01:41:50.137 : en:Chapter 31
01:45:56.383 : en:Chapter 32
01:47:28.642 : en:Chapter 33
01:50:16.509 : en:Chapter 34
01:52:17.263 : en:Chapter 35
01:57:02.048 : en:Chapter 36
02:02:41.721 : en:Chapter 37
02:05:53.913 : en:Chapter 38
02:09:43.642 : en:Chapter 39
02:13:56.061 : en:Chapter 40
02:18:05.644 : en:Chapter 41
02:20:51.176 : en:Chapter 42
02:24:17.015 : en:Chapter 43
02:27:27.071 : en:Chapter 44
02:30:45.069 : en:Chapter 45
02:33:41.946 : en:Chapter 46
02:37:33.594 : en:Chapter 47
02:41:06.890 : en:Chapter 48
02:43:29.666 : en:Chapter 49
02:45:27.617 : en:Chapter 50
02:51:38.855 : en:Chapter 51
02:56:20.603 : en:Chapter 52
03:00:36.525 : en:Chapter 53
03:01:59.441 : en:Chapter 54

 

Вложения

  • 23,8 KB Просмотры: 1
    Личеров 0
    Сидеров 0
    Файлов 1
    Объем 4,6 GB
Ваш e-mail не будет опубликован. Он потребуется для подтверждения Вашего поста.
Оформление текста Нажмите «Ввод», чтобы отправить ответ.