За сегодня опубликовано 9 новых материалов.
Инструкция новичку Путеводитель по форуму Прокси для Telegram Показать подсказки , это бомба!

DCMA Скачать Суперсемейка 2 / Incredibles 2 (2018) BDRip-AVC от ExKinoRay | Лицензия бесплатно через торрент

  • 90% материалов доступно к скачиванию после простой регистрации!
    Если же ты хочешь скачивать материалы без требования оставлять отзывы то получи группу "Новичок", 10 способов повышения описаны тут -> ссылка
  • К сожалению количество битых ссылок растет и мы уже не можем их оперативно восстанавливать поэтому просим помощи у каждого нашего пользователя.
    С сегодняшнего дня, за каждую восстановленную ссылку мы заплатим Вам.
    Подробнее тут -> ссылка
  • Перенесем твои заслуги с другого ресурса!
    Мы понимаем как сложно прокачивать аккаунты на форумах, вроде раскачал аккаунт, а тут появляется ресурс в 100 раз круче но тоже с системой прокачки и снова качать аккаунт...
    Предлагаем вам перенести Ваши заслуги на другом подобном ресурсе к нам.
    Подробности описаны тут -> ссылка
  • Вы можете получать по 2.5% с каждой покупки и продажи на маркете! Подробности в теме Партнёрская программа
Если Вы не хотите скачивать, Вы всегда можете посмотреть онлайн, просто нажмите кнопку ниже :

Открыть плеер

Torrent_Bot

Торрент-Бот
Бот форума
4 Окт 2016
125
22
20





Информация о фильме
Название: Суперсемейка 2
Оригинальное название: Incredibles 2
Год выпуска: 2018
Жанр: Мультфильм, фантастика, боевик, комедия, приключения, семейный, полнометражный
Режиссер: Брэд Берд
В ролях: Крэйг Т. Нельсон, Холли Хантер, Сара Вауэлл, Хак Милнер, Кэтрин Кинер, Илай Фучиле, Боб Оденкёрк, Сэмюэл Л. Джексон, Майкл Бёрд, София Буш

О фильме:
После событий первой части суперсемейка пользуется повышенным вниманием со стороны журналистов. Неожиданно оказалось, что обаятельная Миссис Исключительная гораздо лучше смотрится на экране телевизора, чем её муж. Мистеру Исключительному все чаще приходится сидеть дома и приглядывать за детьми, у каждого из которых есть свои причины быть недовольным собственными суперспособностями. Однако семейным проблемам предстоит отступить на второй план, когда окажется, что спокойствию Суперсемейки угрожает новый могущественный враг.



Страна: США
Студия: Pixar Animation Studios, Walt Disney Pictures
Продолжительность: 01:57:50
Перевод: Дублированный | Лицензия BD EUR

Формат: MKV
Качество: BDRip-AVC
Видео: MPEG-4 AVC, 1024x428 (2.40:1), 23,976 fps, ~ 1920 kbps
Аудио #01: 48 kHz, AC3, 5.1, 448 Kbps | Лицензия | RUS |
Аудио #02: 48 kHz, AC3, 5.1, 448 Kbps | Оригинал | ENG |
Субтитры: Русские (Forced, full, SDH), английские

МИ
General
Unique ID : 186490736337280601481724049214631735818 (0x8C4CCF315158F1D4A69B5C53568A720A)
Complete name : D:The.Incredibles.2.2018.BDRip.AVC.ExKinoRay.mkv
Format : Matroska
Format version : Version 2
File size : 2.32 GiB
Duration : 1 h 57 min
Overall bit rate : 2 819 kb/s
Movie name : The Incredibles 2 2018 from ExKinoRay
Encoded date : UTC 2018-12-01 15:13:56
Writing application : mkvmerge v5.6.0 ('Kenya Kane') built on May 27 2012 16:44:04
Writing library : libebml v1.2.3 + libmatroska v1.3.0

Video
ID : 1
Format : AVC
Format/Info : Advanced Video Codec
Format profile : [email protected]
Format settings, CABAC : Yes
Format settings, ReFrames : 12 frames
Codec ID : V_MPEG4/ISO/AVC
Duration : 1 h 57 min
Bit rate : 1 920 kb/s
Width : 1 024 pixels
Height : 428 pixels
Display aspect ratio : 2.40:1
Frame rate mode : Constant
Frame rate : 23.976 (23976/1000) FPS
Color space : YUV
Chroma subsampling : 4:2:0
Bit depth : 8 bits
Scan type : Progressive
Bits/(Pixel*Frame) : 0.183
Stream size : 1.54 GiB (66%)
Title : Enigma
Writing library : x264 core 152 r2851 ba24899
Encoding settings : cabac=1 / ref=12 / deblock=1:-2:-2 / analyse=0x3:0x113 / me=umh / subme=10 / psy=1 / psy_rd=1.03:0.05 / mixed_ref=1 / me_range=32 / chroma_me=1 / trellis=2 / 8x8dct=1 / cqm=0 / deadzone=21,11 / fast_pskip=0 / chroma_qp_offset=-3 / threads=12 / lookahead_threads=3 / sliced_threads=0 / nr=0 / decimate=0 / interlaced=0 / bluray_compat=0 / constrained_intra=0 / bframes=10 / b_pyramid=2 / b_adapt=2 / b_bias=0 / direct=3 / weightb=1 / open_gop=0 / weightp=2 / keyint=240 / keyint_min=23 / scenecut=40 / intra_refresh=0 / rc=2pass / mbtree=0 / bitrate=1920 / ratetol=1.0 / qcomp=0.60 / qpmin=0 / qpmax=51 / qpstep=4 / cplxblur=20.0 / qblur=0.5 / ip_ratio=1.40 / pb_ratio=1.30 / aq=2:0.90
Language : English
Default : Yes
Forced : No
Color range : Limited
Color primaries : BT.709
Transfer characteristics : BT.709
Matrix coefficients : BT.709

Audio #1
ID : 2
Format : AC-3
Format/Info : Audio Coding 3
Mode extension : CM (complete main)
Format settings, Endianness : Big
Codec ID : A_AC3
Duration : 1 h 57 min
Bit rate mode : Constant
Bit rate : 448 kb/s
Channel(s) : 6 channels
Channel positions : Front: L C R, Side: L R, LFE
Sampling rate : 48.0 kHz
Frame rate : 31.250 FPS (1536 spf)
Compression mode : Lossy
Stream size : 378 MiB (16%)
Title : Dub (BD EUR)
Language : Russian
Default : Yes
Forced : No

Audio #2
ID : 3
Format : AC-3
Format/Info : Audio Coding 3
Mode extension : CM (complete main)
Format settings, Endianness : Big
Codec ID : A_AC3
Duration : 1 h 57 min
Bit rate mode : Constant
Bit rate : 448 kb/s
Channel(s) : 6 channels
Channel positions : Front: L C R, Side: L R, LFE
Sampling rate : 48.0 kHz
Frame rate : 31.250 FPS (1536 spf)
Compression mode : Lossy
Stream size : 378 MiB (16%)
Language : English
Default : No
Forced : No

Text #1
ID : 4
Format : UTF-8
Codec ID : S_TEXT/UTF8
Codec ID/Info : UTF-8 Plain Text
Title : Forced
Language : Russian
Default : Yes
Forced : No

Text #2
ID : 5
Format : UTF-8
Codec ID : S_TEXT/UTF8
Codec ID/Info : UTF-8 Plain Text
Title : Full
Language : Russian
Default : No
Forced : No

Text #3
ID : 6
Format : UTF-8
Codec ID : S_TEXT/UTF8
Codec ID/Info : UTF-8 Plain Text
Title : SDH
Language : Russian
Default : No
Forced : No

Text #4
ID : 7
Format : UTF-8
Codec ID : S_TEXT/UTF8
Codec ID/Info : UTF-8 Plain Text
Title : SDH
Language : English
Default : No
Forced : No

Text #5
ID : 8
Format : UTF-8
Codec ID : S_TEXT/UTF8
Codec ID/Info : UTF-8 Plain Text
Title : SDH Colored
Language : English
Default : No
Forced : No

Menu
00:00:00.000 : :00:00:00.000
00:03:22.327 : :00:03:22.327
00:08:53.616 : :00:08:53.616
00:09:36.784 : :00:09:36.784
00:13:38.276 : :00:13:38.276
00:15:44.735 : :00:15:44.735
00:21:19.737 : :00:21:19.737
00:23:28.282 : :00:23:28.282
00:27:08.794 : :00:27:08.794
00:28:59.571 : :00:28:59.571
00:35:10.900 : :00:35:10.900
00:39:07.845 : :00:39:07.845
00:42:43.894 : :00:42:43.894
00:43:42.411 : :00:43:42.411
00:47:35.352 : :00:47:35.352
00:48:53.889 : :00:48:53.889
00:54:15.585 : :00:54:15.585
00:56:16.039 : :00:56:16.039
01:00:58.696 : :01:00:58.696
01:02:01.884 : :01:02:01.884
01:06:55.511 : :01:06:55.511
01:09:18.237 : :01:09:18.237
01:11:28.200 : :01:11:28.200
01:12:37.686 : :01:12:37.686
01:14:39.266 : :01:14:39.266
01:18:00.968 : :01:18:00.968
01:20:32.536 : :01:20:32.536
01:25:01.930 : :01:25:01.930
01:27:59.440 : :01:27:59.440
01:31:53.925 : :01:31:53.925
01:33:26.434 : :01:33:26.434
01:36:25.237 : :01:36:25.237
01:37:45.192 : :01:37:45.192
01:43:56.897 : :01:43:56.897
01:45:35.912 : :01:45:35.912
01:47:30.902 : :01:47:30.902



Релиз от:

Автор релиза:
 

Вложения

  • 12,6 KB Просмотры: 0
    Личеров 0
    Сидеров 0
    Файлов 1
    Объем 2,3 GB
Ваш e-mail не будет опубликован. Он потребуется для подтверждения Вашего поста.
Оформление текста Нажмите «Ввод», чтобы отправить ответ.