За последнюю неделю опубликовано 35 новых материалов.
Инструкция новичку Путеводитель по форуму Прокси для Telegram Показать подсказки , это бомба!

Старухи (2003) DVDRip-AVC от KORSAR

  • Поучаствуй (в качестве покупателя) в любых пяти совместных покупках (кроме завершённых и "Моментальных") и получи группу "Новичок" навсегда -> ссылка на раздел
  • Получай до 480 рублей за каждого приглашенного пользователя!
    представляем Вам очередное расширение партнерской программы, подробности описаны тут -> ссылка
  • 90% материалов доступно к скачиванию после простой регистрации!
    Если же ты хочешь скачивать материалы без требования оставлять отзывы то получи группу "Новичок", 10 способов повышения описаны тут -> ссылка
  • К сожалению количество битых ссылок растет и мы уже не можем их оперативно восстанавливать поэтому просим помощи у каждого нашего пользователя.
    С сегодняшнего дня, за каждую восстановленную ссылку мы заплатим Вам.
    Подробнее тут -> ссылка
  • Перенесем твои заслуги с другого ресурса!
    Мы понимаем как сложно прокачивать аккаунты на форумах, вроде раскачал аккаунт, а тут появляется ресурс в 100 раз круче но тоже с системой прокачки и снова качать аккаунт...
    Предлагаем вам перенести Ваши заслуги на другом подобном ресурсе к нам.
    Подробности описаны тут -> ссылка
  • Вы можете получать по 2.5% с каждой покупки и продажи на маркете! Подробности в теме Партнёрская программа
Если Вы не хотите скачивать, Вы всегда можетепосмотретьонлайн, просто нажмите кнопку ниже :

Открыть плеер

Torrent_Bot

Торрент-Бот
Бот форума
4 Окт 2016
125
66
20





Старухи
Страна: Россия
Жанр: Комедийная драма
Год выпуска: 2003
Продолжительность: 01:43:06
Субтитры: Русские
Режиссер: Геннадий Сидоров
В ролях: Вaлeнтинa Бepeзуцкaя, Гaлинa Cмиpнoвa, Зoя Hopкинa, Taмapa Климoвa, Бpoниcлaвa Зaхapoвa, Aнacтacия Любимoвa, Hинa Кopнилoвa, Геннадий Сидоров, Рано Кубаева, Татьяна Быстрицкая, Зухритдин Реджаметов, Никита Романенко, Алексей Чернов

Описание: В забытой богом русской деревне, "где ни двора и ни кола… и не звонят колокола", как писал когда-то Александр Твардовский, живут старухи. И, несмотря на нищету этой тихой и красивой родины, они любят жизнь и живут как могут…

Релиз от:

Качество: DVDRip-AVC
Формат видео: MKV
Видео: MPEG-4 AVC, [email protected], 25.000 кадр/с, 2206 Кбит/с
Аудио: Русский AC3, 48.0 KHz, 448 Кбит/с, 6 ch
Субтитров: Руские (На узбекскую речь)



Инфо файл
x264 [info]: frame I:734 Avg QP:18.40 size: 71351
x264 [info]: frame P:52129 Avg QP:20.00 size: 21280
x264 [info]: frame B:101808 Avg QP:22.79 size: 5739
x264 [info]: consecutive B-frames: 14.0% 2.7% 10.4% 27.4% 30.8% 13.8% 0.8% 0.2% 0.1% 0.1%
Общее
Уникальный идентификатор : 250260658015941121126729651425775339535 (0xBC467313941DF3BFB43165F89D0A480F)
Полное имя : D:Старухи_2003-DVDRip-AVC_KORSAR.mkv
Формат : Matroska
Версия формата : Version 2
Размер файла : 1,95 Гбайт
Продолжительность : 1 ч. 43 м.
Общий поток : 2707 Кбит/сек
Название фильма : Старухи_2003-DVDRip-AVC_KORSAR
Дата кодирования : UTC 2019-04-08 05:02:03
Программа кодирования : mkvmerge v5.8.0 ('No Sleep / Pillow') built on Sep 2 2012 15:37:04
Библиотека кодирования : libebml v1.2.3 + libmatroska v1.3.0

Видео
Идентификатор : 1
Формат : AVC
Формат/Информация : Advanced Video Codec
Профиль формата : [email protected]
Параметр CABAC формата : Да
Параметр ReFrames формата : 16 кадров
Идентификатор кодека : V_MPEG4/ISO/AVC
Продолжительность : 1 ч. 43 м.
Битрейт : 2206 Кбит/сек
Ширина : 680 пикселей
Высота : 480 пикселей
Соотношение сторон : 1,679
Режим частоты кадров : Постоянный
Частота кадров : 25,000 кадров/сек
Цветовое пространство : YUV
Субдискретизация насыщенности : 4:2:0
Битовая глубина : 8 бит
Тип развёртки : Прогрессивная
Бит/(Пиксели*Кадры) : 0.270
Размер потока : 1,59 Гбайт (81%)
Библиотека кодирования : x264 core 152 r2851kMod ba24899
Настройки программы : cabac=1 / ref=16 / deblock=1:-2:-1 / analyse=0x3:0x133 / me=umh / subme=10 / psy=1 / fade_compensate=0.00 / psy_rd=1.05:0.10 / mixed_ref=1 / me_range=40 / chroma_me=1 / trellis=2 / 8x8dct=1 / cqm=0 / deadzone=21,11 / fast_pskip=1 / chroma_qp_offset=-3 / threads=12 / lookahead_threads=2 / sliced_threads=0 / nr=0 / decimate=1 / interlaced=0 / bluray_compat=0 / constrained_intra=0 / bframes=9 / b_pyramid=2 / b_adapt=2 / b_bias=0 / direct=1 / weightb=1 / open_gop=0 / weightp=2 / keyint=250 / keyint_min=25 / scenecut=40 / intra_refresh=0 / rc=crf / mbtree=0 / crf=17.7000 / qcomp=0.63 / qpmin=0 / qpmax=30 / qpstep=4 / ip_ratio=1.40 / pb_ratio=1.30 / aq=1:1.00
Язык : English
Default : Да
Forced : Нет
Основные цвета : BT.601 NTSC
Характеристики трансфера : BT.601
Коэффициенты матрицы : BT.601

Аудио
Идентификатор : 2
Формат : AC-3
Формат/Информация : Audio Coding 3
Расширение режима : CM (complete main)
Параметр Endianness формата : Big
Идентификатор кодека : A_AC3
Продолжительность : 1 ч. 43 м.
Вид битрейта : Постоянный
Битрейт : 448 Кбит/сек
Каналы : 6 каналов
Расположение каналов : Front: L C R, Side: L R, LFE
Частота : 48,0 КГц
Битовая глубина : 16 бит
Метод сжатия : С потерями
Размер потока : 330 Мбайт (17%)
Язык : Russian
Default : Да
Forced : Нет

Текст
Идентификатор : 3
Формат : UTF-8
Идентификатор кодека : S_TEXT/UTF8
Идентификатор кодека/Информация : UTF-8 Plain Text
Язык : Russian
Default : Нет
Forced : Нет

Меню
00:00:00.000 : en:Chapter 1
00:10:14.801 : en:Chapter 2
00:18:46.001 : en:Chapter 3
00:30:10.001 : en:Chapter 4
00:37:37.602 : en:Chapter 5
00:47:26.802 : en:Chapter 6
00:57:25.603 : en:Chapter 7
01:01:43.204 : en:Chapter 8
01:10:50.404 : en:Chapter 9
01:23:16.404 : en:Chapter 10
01:32:14.005 : en:Chapter 11
01:40:46.806 : en:Chapter 12
О исходнике
Трансфер PAL>NTSC
 

Вложения

  • 20,4 KB Просмотры: 1
    Личеров 0
    Сидеров 0
    Файлов 1
    Объем 2 GB
Ваш e-mail не будет опубликован. Он потребуется для подтверждения Вашего поста.
Оформление текста Нажмите «Ввод», чтобы отправить ответ.