За сегодня опубликовано 0 новых материалов.
Инструкция новичку Путеводитель по форуму Прокси для Telegram Показать подсказки , это бомба!

Скачать Соседки по комнате / Breaking the Girls (2012) BDRip 1080р | P бесплатно через торрент

  • Получай до 480 рублей за каждого приглашенного пользователя!
    представляем Вам очередное расширение партнерской программы, подробности описаны тут -> ссылка
  • 90% материалов доступно к скачиванию после простой регистрации!
    Если же ты хочешь скачивать материалы без требования оставлять отзывы то получи группу "Новичок", 10 способов повышения описаны тут -> ссылка
  • К сожалению количество битых ссылок растет и мы уже не можем их оперативно восстанавливать поэтому просим помощи у каждого нашего пользователя.
    С сегодняшнего дня, за каждую восстановленную ссылку мы заплатим Вам.
    Подробнее тут -> ссылка
  • Перенесем твои заслуги с другого ресурса!
    Мы понимаем как сложно прокачивать аккаунты на форумах, вроде раскачал аккаунт, а тут появляется ресурс в 100 раз круче но тоже с системой прокачки и снова качать аккаунт...
    Предлагаем вам перенести Ваши заслуги на другом подобном ресурсе к нам.
    Подробности описаны тут -> ссылка
  • Вы можете получать по 2.5% с каждой покупки и продажи на маркете! Подробности в теме Партнёрская программа
Если Вы не хотите скачивать, Вы всегда можете посмотреть онлайн, просто нажмите кнопку ниже :

Открыть плеер

Torrent_Bot

Торрент-Бот
Бот форума
4 Окт 2016
125
31
20

Название: Соседки по комнате
Оригинальное название: Breaking the Girls
Год выхода: 2012
Страна: США
Студия: Myriad Pictures, Tapestry Films
Продолжительность: 01:26:41
Жанр: триллер, криминал

Режиссер: Джеми Бэббит
В ролях: Сэм Андерсон, Шон Эшмор, Агнес Брукнер, Шэнна Коллинз, Маниш Дайал, Кейт Леверинг, Дженнифер Энн Мэсси, Билли Майо, Мелани Мейрон, Тия Сиркар, ...

Перевод:
- Профессиональный (многоголосый, закадровый) ?
- Субтитры

О фильме: Сара — амбициозная и симпатичная студентка колледжа Браунинга. У нее уже есть планы на жизнь и будущее. Все меняется, когда у нее появляется новая соседка Алекс — сногсшибательная красотка, которая сразу берет ее под свое крыло. Однажды Алекс полушутя говорит, что они должны убить врагов друг друга. Сара отмахивается, воспринимая предложение как шутку. Но затем кое-кто оказывается мертвым…






Кодек: x264
Качество: BDRip 1080p
Видео: 1800x1080, 12000 kbps, 23,976 fps
Аудио #1: AC-3, 2 ch, 192 kbps (Rus) - MVO
Аудио #2: DTS, 6 ch, 1509 kbps (Eng)
Субтитры: русские, английские
Спасибо за исходник

MediaInfo
x264 [info]: frame I:836 Avg QP:12.88 size:256312
x264 [info]: frame P:25626 Avg QP:15.68 size:128912
x264 [info]: frame B:98241 Avg QP:17.75 size: 43575
x264 [info]: consecutive B-frames: 2.8% 1.8% 7.0% 4.7% 3.1% 79.7% 0.5% 0.0% 0.0% 0.0% 0.1% 0.1% 0.1%

Общее
Уникальный идентификатор : 225951422641426222035774752157814566820 (0xA9FCA93CD072FD219510706CD6ED2FA4)
Полное имя : Соседки по комнате (Breaking the Girls) 2012 BDRip 1080p.mkv
Формат : Matroska
Версия формата : Version 2
Размер файла : 8,29 Гбайт
Продолжительность : 1 ч. 26 м.
Общий поток : 13,7 Мбит/сек
Дата кодирования : UTC 2019-04-04 16:41:59
Программа кодирования : mkvmerge v4.0.0 ('The Stars were mine') сборка от Jun 6 2010 16:18:42
Библиотека кодирования : libebml v1.0.0 + libmatroska v1.0.0

Видео
Идентификатор : 1
Формат : AVC
Формат/Информация : Advanced Video Codec
Профиль формата : [email protected]
Параметр CABAC формата : Да
Параметр ReFrames формата : 4 кадра
Идентификатор кодека : V_MPEG4/ISO/AVC
Продолжительность : 1 ч. 26 м.
Битрейт : 12,0 Мбит/сек
Ширина : 1920 пикселей
Высота : 1080 пикселей
Соотношение сторон : 16:9
Режим частоты кадров : Постоянный
Частота кадров : 23,976 (24000/1001) кадра/сек
Цветовое пространство : YUV
Субдискретизация насыщенности : 4:2:0
Битовая глубина : 8 бит
Тип развёртки : Прогрессивная
Бит/(Пиксели*Кадры) : 0.241
Размер потока : 7,10 Гбайт (86%)
Библиотека кодирования : x264 core 146 r2538 121396c
Настройки программы : cabac=1 / ref=4 / deblock=1:-2:-2 / analyse=0x3:0x133 / me=umh / subme=11 / psy=1 / psy_rd=1.00:0.00 / mixed_ref=1 / me_range=32 / chroma_me=1 / trellis=2 / 8x8dct=1 / cqm=0 / deadzone=21,11 / fast_pskip=0 / chroma_qp_offset=-2 / threads=12 / lookahead_threads=2 / sliced_threads=0 / nr=0 / decimate=0 / interlaced=0 / bluray_compat=0 / constrained_intra=0 / bframes=12 / b_pyramid=2 / b_adapt=2 / b_bias=0 / direct=3 / weightb=1 / open_gop=0 / weightp=2 / keyint=240 / keyint_min=23 / scenecut=40 / intra_refresh=0 / rc=2pass / mbtree=0 / bitrate=12000 / ratetol=1.0 / qcomp=0.60 / qpmin=0 / qpmax=69 / qpstep=4 / cplxblur=20.0 / qblur=0.5 / ip_ratio=1.40 / pb_ratio=1.30 / aq=3:0.80
Язык : English
Default : Нет
Forced : Нет

Аудио #1
Идентификатор : 2
Формат : AC-3
Формат/Информация : Audio Coding 3
Расширение режима : CM (complete main)
Параметр Endianness формата : Big
Идентификатор кодека : A_AC3
Продолжительность : 1 ч. 26 м.
Вид битрейта : Постоянный
Битрейт : 192 Кбит/сек
Каналы : 2 канала
Расположение каналов : Front: L R
Частота : 48,0 КГц
Частота кадров : 31,250 кадров/сек (1536 spf)
Метод сжатия : С потерями
Размер потока : 119 Мбайт (1%)
Заголовок : MVO
Язык : Russian
Default : Нет
Forced : Нет

Аудио #2
Идентификатор : 3
Формат : DTS
Формат/Информация : Digital Theater Systems
Режим : 16
Параметр Endianness формата : Big
Идентификатор кодека : A_DTS
Продолжительность : 1 ч. 26 м.
Вид битрейта : Постоянный
Битрейт : 1509 Кбит/сек
Каналы : 6 каналов
Расположение каналов : Front: L C R, Side: L R, LFE
Частота : 48,0 КГц
Частота кадров : 93,750 кадра/сек (512 spf)
Битовая глубина : 24 бит
Метод сжатия : С потерями
Размер потока : 936 Мбайт (11%)
Язык : English
Default : Нет
Forced : Нет

Текст #1
Идентификатор : 4
Формат : UTF-8
Идентификатор кодека : S_TEXT/UTF8
Идентификатор кодека/Информация : UTF-8 Plain Text
Язык : Russian
Default : Нет
Forced : Нет

Текст #2
Идентификатор : 5
Формат : UTF-8
Идентификатор кодека : S_TEXT/UTF8
Идентификатор кодека/Информация : UTF-8 Plain Text
Язык : English
Default : Нет
Forced : Нет

Меню
00:00:00.000 : en:00:00:00.000
00:06:31.391 : en:00:06:31.391
00:15:58.124 : en:00:15:58.124
00:20:35.192 : en:00:20:35.192
00:27:51.044 : en:00:27:51.044
00:34:51.881 : en:00:34:51.881
00:43:05.625 : en:00:43:05.625
00:48:36.539 : en:00:48:36.539
00:56:29.761 : en:00:56:29.761
01:02:53.061 : en:01:02:53.061
01:09:22.283 : en:01:09:22.283
01:17:54.670 : en:01:17:54.670

 

Вложения

  • 42,4 KB Просмотры: 0
    Личеров 0
    Сидеров 0
    Файлов 1
    Объем 8,3 GB
Ваш e-mail не будет опубликован. Он потребуется для подтверждения Вашего поста.
Оформление текста Нажмите «Ввод», чтобы отправить ответ.