За сегодня опубликовано 32 новых материалов.
Инструкция новичку Путеводитель по форуму Прокси для Telegram Показать подсказки , это бомба!

Скачать Сокровища Ермака (2018) WEB-DLRip от GeneralFilm | iTunes бесплатно через торрент

  • Получай до 480 рублей за каждого приглашенного пользователя!
    представляем Вам очередное расширение партнерской программы, подробности описаны тут -> ссылка
  • 90% материалов доступно к скачиванию после простой регистрации!
    Если же ты хочешь скачивать материалы без требования оставлять отзывы то получи группу "Новичок", 10 способов повышения описаны тут -> ссылка
  • К сожалению количество битых ссылок растет и мы уже не можем их оперативно восстанавливать поэтому просим помощи у каждого нашего пользователя.
    С сегодняшнего дня, за каждую восстановленную ссылку мы заплатим Вам.
    Подробнее тут -> ссылка
  • Перенесем твои заслуги с другого ресурса!
    Мы понимаем как сложно прокачивать аккаунты на форумах, вроде раскачал аккаунт, а тут появляется ресурс в 100 раз круче но тоже с системой прокачки и снова качать аккаунт...
    Предлагаем вам перенести Ваши заслуги на другом подобном ресурсе к нам.
    Подробности описаны тут -> ссылка
  • Вы можете получать по 2.5% с каждой покупки и продажи на маркете! Подробности в теме Партнёрская программа
Если Вы не хотите скачивать, Вы всегда можете посмотреть онлайн, просто нажмите кнопку ниже :

Открыть плеер

Torrent_Bot

Торрент-Бот
Бот форума
4 Окт 2016
125
31
20
Информация о фильме
Оригинальное название: Сокровища Ермака
Год выпуска: 2018
Жанр:Семейный, приключения
Режиссер: Олег Денисов
В ролях: Георгий Кальдин, Мария Полиенко, Владимир Грамматиков, Артем Лещик, Александр Кононец, Ирина Горячева, Полина Воробьева, Роман Грибков, Сергей Гамов

О фильме:
После того, как одиннадцатилетний пермский школьник Костя, самозабвенно влюбленный в археологию, находит на учебных раскопках древний ларец Строгановых с картой, начинается настоящая охота за легендарным кладом Ермака. Карта оказывается моментально похищенной бандитами. Но у Кости остаются фотография карты и ключ, о существовании которого бандиты уже догадались. Мальчик отправляется на поиски сокровищ, предварительно убедив родителей, что всего лишь едет в деревню к бабушке. Когда-то из-за этого клада погиб дед мальчика, известный археолог, и Костя решительно настроен осуществить его мечту. Неожиданно для Кости, вместе с ним увязывается Маша, девочка-сорванец, сбежавшая из дома. Вдвоем дети умудряются скрываться и от бандитов, и от полиции, проявляя чудеса изобретательности и
медленно, но верно, шаг за шагом, приближаясь к кладу.



Страна: Россия
Студия: ТПО Рок
Продолжительность: 01:28:13
Перевод: Не требуется
Субтитры: нет

Файл
Формат: avi
Качество: WEB-DLRip
Видео: XviD build 73, 688x368 (1.85:1), 25.000 fps, ~ 1044 Kbps (~ 0.165 bit/pixel)
Звук: 48.0 kHz, MP3, 2/0 ch, 128 kbps

MediaInfo
General
Complete name : D:RazdachiSokrovisha.Ermaka.2018.XviD.745mb.WEB-DLRip.GeneralFilm.avi
Format : AVI
Format/Info : Audio Video Interleave
File size : 746 MiB
Duration : 1 h 28 min
Overall bit rate : 1 182 kb/s
Writing application : VirtualDubMod 1.5.10.3 | www.virtualdub-fr.org || (build 2550/release)
Writing library : VirtualDubMod build 2550/release

Video
ID : 0
Format : MPEG-4 Visual
Format profile : Advanced [email protected]
Format settings, BVOP : 1
Format settings, QPel : No
Format settings, GMC : No warppoints
Format settings, Matrix : Custom
Codec ID : XVID
Codec ID/Hint : XviD
Duration : 1 h 28 min
Bit rate : 1 044 kb/s
Width : 688 pixels
Height : 368 pixels
Display aspect ratio : 1.85:1
Frame rate : 25.000 FPS
Color space : YUV
Chroma subsampling : 4:2:0
Bit depth : 8 bits
Scan type : Progressive
Compression mode : Lossy
Bits/(Pixel*Frame) : 0.165
Stream size : 659 MiB (88%)
Writing library : XviD 73

Audio
ID : 1
Format : MPEG Audio
Format version : Version 1
Format profile : Layer 3
Codec ID : 55
Codec ID/Hint : MP3
Duration : 1 h 28 min
Bit rate mode : Constant
Bit rate : 128 kb/s
Channel(s) : 2 channels
Sampling rate : 48.0 kHz
Compression mode : Lossy
Stream size : 80.8 MiB (11%)
Alignment : Aligned on interleaves
Interleave, duration : 40 ms (1.00 video frame)
Interleave, preload duratio : 504 ms
Writing library : LAME3.99r
Encoding settings : -m s -V 4 -q 2 -lowpass 17 -b 128
Скриншоты
Релиз от:
 

Вложения

  • 15,5 KB Просмотры: 0
    Личеров 0
    Сидеров 0
    Файлов 1
    Объем 745,8 MB
Ваш e-mail не будет опубликован. Он потребуется для подтверждения Вашего поста.
Оформление текста Нажмите «Ввод», чтобы отправить ответ.