За сегодня опубликовано 26 новых материалов.
Инструкция новичку Путеводитель по форуму Прокси для Telegram Показать подсказки , это бомба!

Скачать Смертельное влечение / Heathers (1988) BDRip 1080p | P, P2, L1 бесплатно через торрент

  • 90% материалов доступно к скачиванию после простой регистрации!
    Если же ты хочешь скачивать материалы без требования оставлять отзывы то получи группу "Новичок", 10 способов повышения описаны тут -> ссылка
  • К сожалению количество битых ссылок растет и мы уже не можем их оперативно восстанавливать поэтому просим помощи у каждого нашего пользователя.
    С сегодняшнего дня, за каждую восстановленную ссылку мы заплатим Вам.
    Подробнее тут -> ссылка
  • Перенесем твои заслуги с другого ресурса!
    Мы понимаем как сложно прокачивать аккаунты на форумах, вроде раскачал аккаунт, а тут появляется ресурс в 100 раз круче но тоже с системой прокачки и снова качать аккаунт...
    Предлагаем вам перенести Ваши заслуги на другом подобном ресурсе к нам.
    Подробности описаны тут -> ссылка
  • Вы можете получать по 2.5% с каждой покупки и продажи на маркете! Подробности в теме Партнёрская программа
Если Вы не хотите скачивать, Вы всегда можете посмотреть онлайн, просто нажмите кнопку ниже :

Открыть плеер

Torrent_Bot

Торрент-Бот
Бот форума
4 Окт 2016
125
17
20

Название: Смертельное влечение
Оригинальное название: Heathers
Год выхода: 1988
Страна: США
Студия: New World Pictures, Cinemarque Entertainment
Продолжительность: 01:43:36
Жанр: триллер, комедия, криминал

Режиссер: Майкл Леманн
В ролях: Вайнона Райдер, Кристиан Слэйтер, Шеннен Доэрти, Лизанн Фальк, Ким Уолкер, Пенелопа Милфорд, Гленн Шэдикс, Лэнс Фентон, Патрик Лабьорто, Джерами Эпплгейт, ...

Перевод:
- Профессиональный (многоголосый, закадровый) Total DVD
- Профессиональный (многоголосый, закадровый) R5 от «Настроение Video»
- Профессиональный (двуголосый, закадровый) Эврика Видео
- Любительский (одноголосый, закадровый) Стасюк Дмитрий
- Субтитры

О фильме: В школе Уэстерберг Хай порядки устанавливают девушки из группы «Вереск». Вероника одна из них, но ей не нравится жестокость и несправедливость ее группы по отношению к другим студенткам. Она знакомится с Джейсоном Дином и делится с ним своими переживаниями. Он предлагает покончить с тиранией и избавиться от девушек из «Вереска», убив их и представив это как самоубийство. Поначалу Вероника думает, что он шутит, и даже соглашается помочь ему проучить пару-другую школьных задавак. Однако когда от слов они переходят к делу, становится ясно, что намерения нового знакомого серьезней некуда…



Кодек: x264
Качество: BDRip 1080p
Видео: 1920x1036, 14000 kbps, 23,976 fps
Аудио #1: AC-3, 6 ch, 448 kbps (Rus) - MVO Total DVD
Аудио #2: AC-3, 2 ch, 192 kbps (Rus) - MVO R5 «Настроение Video»
Аудио #3: AC-3, 2 ch, 192 kbps (Rus) - DVO Эврика Видео
Аудио #4: AC-3, 2 ch, 192 kbps (Rus) - VO Стасюк Дмитрий
Аудио #5: DTS, 6 ch, 1509 kbps (Eng)
Субтитры: русские, английские
Спасибо за исходник

MediaInfo
x264 [info]: frame I:911 Avg QP:17.87 size:225461
x264 [info]: frame P:24137 Avg QP:20.46 size:117907
x264 [info]: frame B:123992 Avg QP:22.20 size: 63075
x264 [info]: consecutive B-frames: 0.9% 0.6% 1.8% 8.0% 12.7% 34.6% 12.4% 5.2% 6.9% 6.8% 3.6% 1.7% 1.8% 2.0% 0.9%

Общее
Уникальный идентификатор : 192966295058983082470484886602123056092 (0x912BF4E32871E75B8B48AFEFD3BC13DC)
Полное имя : Смертельное влечение (Heathers) 1988 BDRip 1080p.mkv
Формат : Matroska
Версия формата : Version 2
Размер файла : 12,0 Гбайт
Продолжительность : 1 ч. 43 м.
Общий поток : 16,5 Мбит/сек
Дата кодирования : UTC 2019-05-12 21:16:41
Программа кодирования : mkvmerge v4.0.0 ('The Stars were mine') сборка от Jun 6 2010 16:18:42
Библиотека кодирования : libebml v1.0.0 + libmatroska v1.0.0

Видео
Идентификатор : 1
Формат : AVC
Формат/Информация : Advanced Video Codec
Профиль формата : [email protected]
Параметр CABAC формата : Да
Параметр ReFrames формата : 4 кадра
Идентификатор кодека : V_MPEG4/ISO/AVC
Продолжительность : 1 ч. 43 м.
Битрейт : 14,0 Мбит/сек
Ширина : 1920 пикселей
Высота : 1036 пикселей
Соотношение сторон : 1,85:1
Режим частоты кадров : Постоянный
Частота кадров : 23,976 (24000/1001) кадра/сек
Цветовое пространство : YUV
Субдискретизация насыщенности : 4:2:0
Битовая глубина : 8 бит
Тип развёртки : Прогрессивная
Бит/(Пиксели*Кадры) : 0.294
Размер потока : 9,89 Гбайт (83%)
Библиотека кодирования : x264 core 146 r2538 121396c
Настройки программы : cabac=1 / ref=4 / deblock=1:-1:-1 / analyse=0x3:0x133 / me=umh / subme=11 / psy=1 / psy_rd=1.00:0.00 / mixed_ref=1 / me_range=32 / chroma_me=1 / trellis=2 / 8x8dct=1 / cqm=0 / deadzone=21,11 / fast_pskip=0 / chroma_qp_offset=-2 / threads=12 / lookahead_threads=2 / sliced_threads=0 / nr=0 / decimate=0 / interlaced=0 / bluray_compat=0 / constrained_intra=0 / bframes=14 / b_pyramid=2 / b_adapt=2 / b_bias=0 / direct=3 / weightb=1 / open_gop=0 / weightp=2 / keyint=240 / keyint_min=23 / scenecut=40 / intra_refresh=0 / rc=2pass / mbtree=0 / bitrate=14000 / ratetol=1.0 / qcomp=0.60 / qpmin=0 / qpmax=69 / qpstep=4 / cplxblur=20.0 / qblur=0.5 / ip_ratio=1.40 / pb_ratio=1.30 / aq=3:0.80
Язык : English
Default : Нет
Forced : Нет

Аудио #1
Идентификатор : 2
Формат : AC-3
Формат/Информация : Audio Coding 3
Расширение режима : CM (complete main)
Параметр Endianness формата : Big
Идентификатор кодека : A_AC3
Продолжительность : 1 ч. 43 м.
Вид битрейта : Постоянный
Битрейт : 448 Кбит/сек
Каналы : 6 каналов
Расположение каналов : Front: L C R, Side: L R, LFE
Частота : 48,0 КГц
Частота кадров : 31,250 кадров/сек (1536 spf)
Метод сжатия : С потерями
Размер потока : 332 Мбайт (3%)
Заголовок : MVO Total DVD
Язык : Russian
Default : Нет
Forced : Нет

Аудио #2
Идентификатор : 3
Формат : AC-3
Формат/Информация : Audio Coding 3
Расширение режима : CM (complete main)
Параметр Endianness формата : Big
Идентификатор кодека : A_AC3
Продолжительность : 1 ч. 43 м.
Вид битрейта : Постоянный
Битрейт : 192 Кбит/сек
Каналы : 2 канала
Расположение каналов : Front: L R
Частота : 48,0 КГц
Частота кадров : 31,250 кадров/сек (1536 spf)
Метод сжатия : С потерями
Размер потока : 142 Мбайт (1%)
Заголовок : MVO R5 «Настроение Video»
Язык : Russian
Default : Нет
Forced : Нет

Аудио #3
Идентификатор : 4
Формат : AC-3
Формат/Информация : Audio Coding 3
Расширение режима : CM (complete main)
Параметр Endianness формата : Big
Идентификатор кодека : A_AC3
Продолжительность : 1 ч. 43 м.
Вид битрейта : Постоянный
Битрейт : 192 Кбит/сек
Каналы : 2 канала
Расположение каналов : Front: L R
Частота : 48,0 КГц
Частота кадров : 31,250 кадров/сек (1536 spf)
Метод сжатия : С потерями
Размер потока : 142 Мбайт (1%)
Заголовок : DVO Эврика Видео
Язык : Russian
Default : Нет
Forced : Нет

Аудио #4
Идентификатор : 5
Формат : AC-3
Формат/Информация : Audio Coding 3
Расширение режима : CM (complete main)
Параметр Endianness формата : Big
Идентификатор кодека : A_AC3
Продолжительность : 1 ч. 43 м.
Вид битрейта : Постоянный
Битрейт : 192 Кбит/сек
Каналы : 2 канала
Расположение каналов : Front: L R
Частота : 48,0 КГц
Частота кадров : 31,250 кадров/сек (1536 spf)
Метод сжатия : С потерями
Размер потока : 142 Мбайт (1%)
Заголовок : VO Стасюк Дмитрий
Язык : Russian
Default : Нет
Forced : Нет

Аудио #5
Идентификатор : 6
Формат : DTS
Формат/Информация : Digital Theater Systems
Режим : 16
Параметр Endianness формата : Big
Идентификатор кодека : A_DTS
Продолжительность : 1 ч. 43 м.
Вид битрейта : Постоянный
Битрейт : 1509 Кбит/сек
Каналы : 6 каналов
Расположение каналов : Front: L C R, Side: L R, LFE
Частота : 48,0 КГц
Частота кадров : 93,750 кадра/сек (512 spf)
Битовая глубина : 24 бит
Метод сжатия : С потерями
Размер потока : 1,09 Гбайт (9%)
Язык : English
Default : Нет
Forced : Нет

Текст #1
Идентификатор : 7
Формат : UTF-8
Идентификатор кодека : S_TEXT/UTF8
Идентификатор кодека/Информация : UTF-8 Plain Text
Язык : Russian
Default : Нет
Forced : Нет

Текст #2
Идентификатор : 8
Формат : UTF-8
Идентификатор кодека : S_TEXT/UTF8
Идентификатор кодека/Информация : UTF-8 Plain Text
Заголовок : SDH
Язык : English
Default : Нет
Forced : Нет

Меню
00:00:00.000 : en:Chapter 01
00:05:46.637 : en:Chapter 02
00:11:17.551 : en:Chapter 03
00:17:48.942 : en:Chapter 04
00:20:54.461 : en:Chapter 05
00:27:02.704 : en:Chapter 06
00:31:21.337 : en:Chapter 07
00:39:12.641 : en:Chapter 08
00:42:43.477 : en:Chapter 09
00:46:46.220 : en:Chapter 10
00:51:35.008 : en:Chapter 11
00:58:40.767 : en:Chapter 12
01:03:47.073 : en:Chapter 13
01:08:06.791 : en:Chapter 14
01:13:25.317 : en:Chapter 15
01:17:37.653 : en:Chapter 16
01:22:53.635 : en:Chapter 17
01:28:36.853 : en:Chapter 18
01:35:02.571 : en:Chapter 19
01:42:27.224 : en:Chapter 20

 

Вложения

  • 60,8 KB Просмотры: 0
    Личеров 0
    Сидеров 0
    Файлов 1
    Объем 12 GB
Ваш e-mail не будет опубликован. Он потребуется для подтверждения Вашего поста.
Оформление текста Нажмите «Ввод», чтобы отправить ответ.

Привет!

Мы группа людей которые решили помочь другим в решении их проблем, а так же пользователям с поиском самых свежих и качественных инфопродуктов. За 4 с небольшим месяца мы создали этот форум на который заходят ежедневно тысячи человек и посещаемость постоянно растёт. Мы создали панель лицензирования для защиты PHP скриптов от воровства и SEO панель для мониторинга наших сайтов и выбора верной стратегии их развития. Мы надеемся что то что мы создали пригодится Вам и возможно Вы поможете нам развиваться и совершенствоваться вместе с Вами.

Статистика форума

Темы
347.301
Сообщения
372.902
Пользователи
28.650
Новый пользователь
Hidero

Приложения форума для iOS и Android


У ркн там нет власти ;)
Гостевуха
Помощь Пользователи
  • H Chat Bot:
    Гость hjjjj присоединился к комнате.
    +1
  • H (Гость) hjjjj:
    тест
    Цитата
  • mizaider @ mizaider:
    Ну что там. Тест пройден или нет? Я волнуюсь.
    Цитата
  • V Chat Bot:
    Гость Vapasik2 присоединился к комнате.
  • V (Гость) Vapasik2:
    Добрый вечер. Не могу восстановить пароль (не приходит уведомление на почту).
    Цитата
  • V (Гость) Vapasik2:
    Что делать?
    Цитата
  • Alpha @ Alpha:
    Vapasik2 написал(а):
    Напишите в тех-поддержку Создать заявку
    Цитата
  • T Chat Bot:
    tezka75 присоединился(лась) к комнате.
  • D Chat Bot:
    DmitryB покинул(а) комнату.
  • Captain @ Captain:
    Батя в здание
    Цитата
  • Eevee @ Eevee:
    <script>alert('Привет))')</script>
    Цитата
  • Eevee @ Eevee:
    упс
    Цитата
  • mizaider @ mizaider:
    Не ну это бан
    Цитата
  • Captain @ Captain:
    Батя в здание
    Цитата
  • Captain @ Captain:
    @mizaider, чек лс@mizaider, чек лс
    Цитата
  • kolyan-malyan Chat Bot:
    kolyan-malyan покинул(а) комнату.
  • S Chat Bot:
    stylvihos покинул(а) комнату.
  • Verniki Chat Bot:
    Verniki присоединился(лась) к комнате.
  • Verniki @ Verniki:
    Уважаемые,пожалуйста, поясните мне - динозавру, что значит "тема в TOR"?
    Цитата
  • G Chat Bot:
    Garry_ покинул(а) комнату.
  • N Chat Bot:
    nyuh_900 покинул(а) комнату.
  • A Chat Bot:
    Asqw покинул(а) комнату.
    A Chat Bot: Asqw покинул(а) комнату.