За сегодня опубликовано 14 новых материалов.
Инструкция новичку Путеводитель по форуму Прокси для Telegram Показать подсказки , это бомба!

Скачать Смерть Сталина / The Death of Stalin (2017) BDRip 1080p от Ash61 | D, P, A бесплатно через торрент

  • Получай до 480 рублей за каждого приглашенного пользователя!
    представляем Вам очередное расширение партнерской программы, подробности описаны тут -> ссылка
  • 90% материалов доступно к скачиванию после простой регистрации!
    Если же ты хочешь скачивать материалы без требования оставлять отзывы то получи группу "Новичок", 10 способов повышения описаны тут -> ссылка
  • К сожалению количество битых ссылок растет и мы уже не можем их оперативно восстанавливать поэтому просим помощи у каждого нашего пользователя.
    С сегодняшнего дня, за каждую восстановленную ссылку мы заплатим Вам.
    Подробнее тут -> ссылка
  • Перенесем твои заслуги с другого ресурса!
    Мы понимаем как сложно прокачивать аккаунты на форумах, вроде раскачал аккаунт, а тут появляется ресурс в 100 раз круче но тоже с системой прокачки и снова качать аккаунт...
    Предлагаем вам перенести Ваши заслуги на другом подобном ресурсе к нам.
    Подробности описаны тут -> ссылка
  • Вы можете получать по 2.5% с каждой покупки и продажи на маркете! Подробности в теме Партнёрская программа
Если Вы не хотите скачивать, Вы всегда можете посмотреть онлайн, просто нажмите кнопку ниже :

Открыть плеер

Torrent_Bot

Торрент-Бот
Бот форума
4 Окт 2016
125
31
20

Смерть Сталина
The Death of Stalin
«Тоталитарная комедия в вольной трактовке»


Страна: Франция, Великобритания, Бельгия (eOne, Gaumont, Quad Productions, Main Journey, France 3 Cinéma, Canal+, Panache Productions, ...)
Жанр: драма, сатира, история
Год выпуска: 2017
Продолжительность: 01:46:34

Озвучки: Дубляж (официальный), профессиональная многоголосая закадровая, авторские одноголосые (2), украинская многоголосая (официальная)

Режиссер: Армандо Ианнуччи / Armando Iannucci [В петле / In the Loop (2009); Гуща событий / The Thick of It (сериал 2005 – 2012); Вице-президент / Veep (сериал 2012 – ...)]



Роли исполняли / дублировали::



Стив Бушеми / Сергей Бурунов(Хрущёв), Саймон Расселл Бил / Алексей Багдасаров(Берия), Джеффри Тэмбор / Андрей Казанцев(Маленков), Джейсон Айзекс / Сергей Чихачёв(Жуков), Майкл Пэйлин / Вениамин Смехов(Молотов), Дермот Краули / Анатолий Хропов(Каганович), Пол Уайтхаус / Константин Карасик(Микоян), Пол Чахиди / Алексей Войтюк(Булганин), Ольга Куриленко / Ирина Киреева(Мария Юдина), Андреа Райзборо / Дарья Семенова(Светлана Сталина), Руперт Френд / Илья Барабанов(Василий Сталин), Адриан Маклафлин / Сергей Чонишвили(Иосиф Сталин), Пэдди Консидайн / Владимир Скворцов(тов. Андреев), Джеральд Лепковский (Брежнев)



Описание: СССР, 1953 год. Страна трепещет от страха перед одним человеком. 5 марта Генсек умер. Когда уходит великий вождь, наступает время борьбы за власть. Гонка началась!



Доп. информация:
• Прокатное удостоверение в России у фильма было отозвано (по сути - запрещён).
• За официальный русский дубляж большое спасибо Man505!
• За официальную украинскую многоголоску спасибо Hurtom!

Знаете ли вы, что...
Политико-сатирический художественный фильм британского режиссёра Армандо Ианнуччи по одноимённому французскому графическому роману (комиксу) 2010 года Фабьена Нури и Тьерри Робена.
При работе над сценарием британские авторы — Армандо Ианнуччи, Дэвид Шнайдер, Иэн Мартин, Питер Феллоуз — использовали повествовательную структуру, созданную Нури и Робеном, и усилили сатирический посыл по сравнению с более серьёзной графической новеллой, сохранив ужас и трагизм истории. По словам Ианнуччи, авторы старались отнестись к историческим событиям с максимальным уважением и с пониманием того, что происходившее с миллионами людей в СССР не было смешно, однако можно использовать комедию для исследования мировоззрения советских политиков и смеяться над «подковёрными интригами этих взрослых людей, которые внезапно ведут себя как дети».
Кинообозреватель «Российской газеты» Валерий Кичин определил жанр фильма как «грубый, но, увы, справедливый трагифарс», и заметил, что осознание того, что в основе гротеска лежит суровая правда, оставляет «чувство шока и бессилия», сравнимое с впечатлением от работ Гойи и Босха, а в сцене смерти вождя обнаружил родство с тем, как она показана в драме (а по определению автора фильма Алексея Германа — трагикомедии) «Хрусталёв, машину!» (1998). Обозреватель «Огонька» Андрей Архангельский считает, что парадоксальным образом именно комедия оказалась способна передать серьёзность и мрачную актуальность описанных событий лучше, чем «серьёзные» антисталинские фильмы, пафос которых невольно возвеличивает Сталина.
Премьера фильма в России состоялась 25 января 2018 года в московском кинотеатре «Пионер», несмотря на то, что выданное фильму 17 января 2018 года Министерством культуры Российской Федерации прокатное удостоверение было отозвано 23 января 2018 года, за два дня до выхода картины в прокат.
Выход фильма на экраны и продажа билетов были приостановлены в Белоруссии. Министерство культуры Республики Беларусь решило предварительно посмотреть фильм и потом принять окончательное решение о его показе и после просмотра разрешило прокат фильма, не выявив фактов нарушения законодательства. Также фильм был разрешён к прокату в Армении, Казахстане и Украине.
Натурные съёмки велись в Лондоне: использовались Блайт-хауз и Александра-палас, и в Киеве: Горсовет стал в фильме зданием НКВД, а павильон Экспоцентра — Домом Союзов.
Речь в фильме идёт об авиакатастрофе в Свердловске, в которой погибла хоккейная команда ВВС Московского военного округа. Надо только заметить, что произошла эта трагедия в 1950 году, то есть за три года до смерти Иосифа Сталина.
Армандо Ианнуччи не хотел, чтобы актёры разговаривали с русским акцентом, потому что это могло отпугнуть зрителей, а мысли об акценте помешали бы актёрам импровизировать на съёмочной площадке.
Страница фильма в Википедии - Смерть Сталина (фильм) — Википедия
Награды и номинации
....................Награды:
Премия британского независимого кино 2017 года:
.....Лучший актёр в роли второго плана: Саймон Рассел Бил (Берия)
.....Лучший кастинг: Сара Кроу
.....Лучший грим: Николь Стаффорд
.....Лучших художник: Кристина Касали
Кинофестиваль в Турине (2017): премия Международной федерации кинопрессы за лучший фильм

.............Номинации:

Международный кинофестиваль в Дубае 2017 года, премия «Cinema of the World»
Международный кинофестиваль в Торонто 2017 года, премия «Platform»
Премия британского независимого кино 2017 года:
.....Лучший фильм
.....Лучшее достижение: Армандо Иануччи
.....Лучший сценарий: Армандо Иануччи, Дэвид Шнайдер и Ян Мартин
.....Лучшая актриса в роли второго плана: Андреа Райсборо (Светлана)
Премия BAFTA 2018 года:
.....Выдающийся британский фильм
.....Лучший адаптированный сценарий
Премьера (мир): 8 сентября 2017
Релиз на Blu-Ray (DVD) (Россия): не будет

.


Тип релиза: BDRip 1080p (by Ash61)
Контейнер: MKV



Видео: AVC / 1920х1040p / 24,000 fps / 10 Mbps

Аудио:
#1 - Русский / AC3 / 48 KHz / 5.1 ch / 640 Kbps (Дубляж [официальный] - Line) (перемонтаж в 5.1 - Ash61)
#2 - Русский / AC3 / 48 KHz / 2 ch / 192 Kbps (MVO - HDrezka Studio) (синхронизированная)
#3 - Русский / AC3 / 48 KHz / 5.1 ch / 640 Kbps (AVO - Юрий Сербин)
#4 - Русский / AC3 / 48 KHz / 5.1 ch / 640 Kbps (AVO - Михаил Яроцкий)
#5 - Украинский / AC3 / 48 KHz / 5.1 ch / 640 Kbps (MVO [официальная] - AAA-Sound)
#6 - Английский / AC3 / 48 KHz / 5.1 ch / 640 Kbps (Original - BD EUR)

Субтитры (вшитые softsub SRT):
#1 - Русские Полные (по официальному дубляжу) [Ash61, корр.3]
#2 - Русские Полные [Focs]
#3 - Русские Полные [PhysKids]
#4 - English Full
#5 - English SDH

MediaInfo
General
Unique ID : 198228596567143295089243598225370470707 (0x952170620EF096FB9224B30C1E435933)
Complete name : D:TheDeathOfStalin(2017)BDRip.1080p(Line-5.1+MVO+AVOx2).mkv
Format : Matroska
Format version : Version 2
File size : 9.97 GiB
Duration : 1h 46mn
Overall bit rate : 13.4 Mbps
Movie name : Смерть Сталина / The Death of Stalin (2017)
Encoded date : UTC 2019-05-04 08:13:58
Writing application : mkvmerge v5.8.0 ('No Sleep / Pillow') built on Sep 2 2012 15:37:04
Writing library : libebml v1.2.3 + libmatroska v1.3.0

Video
ID : 1
Format : AVC
Format/Info : Advanced Video Codec
Format profile : [email protected]
Format settings, CABAC : Yes
Format settings, ReFrames : 4 frames
Codec ID : V_MPEG4/ISO/AVC
Duration : 1h 46mn
Bit rate : 10 000 Kbps
Width : 1 920 pixels
Height : 1 040 pixels
Display aspect ratio : 1.85:1
Frame rate mode : Constant
Frame rate : 24.000 fps
Color space : YUV
Chroma subsampling : 4:2:0
Bit depth : 8 bits
Scan type : Progressive
Bits/(Pixel*Frame) : 0.209
Stream size : 7.24 GiB (73%)
Title : BDRip by Ash61
Writing library : x264 core 146 r2538 121396c
Encoding settings : cabac=1 / ref=4 / deblock=1:-3:-3 / analyse=0x3:0x113 / me=umh / subme=10 / psy=1 / psy_rd=1.00:0.00 / mixed_ref=1 / me_range=32 / chroma_me=1 / trellis=2 / 8x8dct=1 / cqm=0 / deadzone=21,11 / fast_pskip=0 / chroma_qp_offset=-2 / threads=12 / lookahead_threads=2 / sliced_threads=0 / nr=0 / decimate=0 / interlaced=0 / bluray_compat=0 / constrained_intra=0 / bframes=7 / b_pyramid=2 / b_adapt=2 / b_bias=0 / direct=3 / weightb=1 / open_gop=0 / weightp=2 / keyint=250 / keyint_min=24 / scenecut=40 / intra_refresh=0 / rc_lookahead=60 / rc=2pass / mbtree=0 / bitrate=10000 / ratetol=1.0 / qcomp=0.70 / qpmin=0 / qpmax=69 / qpstep=4 / cplxblur=20.0 / qblur=0.5 / vbv_maxrate=40000 / vbv_bufsize=30000 / nal_hrd=none / filler=0 / ip_ratio=1.40 / pb_ratio=1.30 / aq=1:0.70
Language : English
Default : Yes
Forced : No

Audio #1
ID : 2
Format : AC-3
Format/Info : Audio Coding 3
Mode extension : CM (complete main)
Format settings, Endianness : Big
Codec ID : A_AC3
Duration : 1h 46mn
Bit rate mode : Constant
Bit rate : 640 Kbps
Channel(s) : 6 channels
Channel positions : Front: L C R, Side: L R, LFE
Sampling rate : 48.0 KHz
Frame rate : 31.250 fps (1536 spf)
Compression mode : Lossy
Stream size : 488 MiB (5%)
Title : Дубляж - Line (перемонтаж в 5.1 - Ash61)
Language : Russian
Default : Yes
Forced : No

Audio #2
ID : 3
Format : AC-3
Format/Info : Audio Coding 3
Mode extension : CM (complete main)
Format settings, Endianness : Big
Codec ID : A_AC3
Duration : 1h 46mn
Bit rate mode : Constant
Bit rate : 192 Kbps
Channel(s) : 2 channels
Channel positions : Front: L R
Sampling rate : 48.0 KHz
Frame rate : 31.250 fps (1536 spf)
Compression mode : Lossy
Stream size : 146 MiB (1%)
Title : MVO - HDrezka Studio (corrected)
Language : Russian
Default : No
Forced : No

Audio #3
ID : 4
Format : AC-3
Format/Info : Audio Coding 3
Mode extension : CM (complete main)
Format settings, Endianness : Big
Codec ID : A_AC3
Duration : 1h 46mn
Bit rate mode : Constant
Bit rate : 640 Kbps
Channel(s) : 6 channels
Channel positions : Front: L C R, Side: L R, LFE
Sampling rate : 48.0 KHz
Frame rate : 31.250 fps (1536 spf)
Compression mode : Lossy
Stream size : 488 MiB (5%)
Title : AVO - Юрий Сербин
Language : Russian
Default : No
Forced : No

Audio #4
ID : 5
Format : AC-3
Format/Info : Audio Coding 3
Mode extension : CM (complete main)
Format settings, Endianness : Big
Codec ID : A_AC3
Duration : 1h 46mn
Bit rate mode : Constant
Bit rate : 640 Kbps
Channel(s) : 6 channels
Channel positions : Front: L C R, Side: L R, LFE
Sampling rate : 48.0 KHz
Frame rate : 31.250 fps (1536 spf)
Compression mode : Lossy
Stream size : 488 MiB (5%)
Title : AVO - Михаил Яроцкий
Language : Russian
Default : No
Forced : No

Audio #5
ID : 6
Format : AC-3
Format/Info : Audio Coding 3
Mode extension : CM (complete main)
Format settings, Endianness : Big
Codec ID : A_AC3
Duration : 1h 46mn
Bit rate mode : Constant
Bit rate : 640 Kbps
Channel(s) : 6 channels
Channel positions : Front: L C R, Side: L R, LFE
Sampling rate : 48.0 KHz
Frame rate : 31.250 fps (1536 spf)
Compression mode : Lossy
Stream size : 488 MiB (5%)
Title : MVO (официальная - студия AAA-Sound)
Language : Ukrainian
Default : No
Forced : No

Audio #6
ID : 7
Format : AC-3
Format/Info : Audio Coding 3
Mode extension : CM (complete main)
Format settings, Endianness : Big
Codec ID : A_AC3
Duration : 1h 46mn
Bit rate mode : Constant
Bit rate : 640 Kbps
Channel(s) : 6 channels
Channel positions : Front: L C R, Side: L R, LFE
Sampling rate : 48.0 KHz
Frame rate : 31.250 fps (1536 spf)
Compression mode : Lossy
Stream size : 488 MiB (5%)
Title : Original (BD EUR)
Language : English
Default : No
Forced : No

Text #1
ID : 8
Format : UTF-8
Codec ID : S_TEXT/UTF8
Codec ID/Info : UTF-8 Plain Text
Title : Полные (по оф. дубляжу) (Ash61, корр.3)
Language : Russian
Default : No
Forced : No

Text #2
ID : 9
Format : UTF-8
Codec ID : S_TEXT/UTF8
Codec ID/Info : UTF-8 Plain Text
Title : Полные (Focs)
Language : Russian
Default : No
Forced : No

Text #3
ID : 10
Format : UTF-8
Codec ID : S_TEXT/UTF8
Codec ID/Info : UTF-8 Plain Text
Title : Полные (PhysKids)
Language : Russian
Default : No
Forced : No

Text #4
ID : 11
Format : UTF-8
Codec ID : S_TEXT/UTF8
Codec ID/Info : UTF-8 Plain Text
Title : Full
Language : English
Default : No
Forced : No

Text #5
ID : 12
Format : UTF-8
Codec ID : S_TEXT/UTF8
Codec ID/Info : UTF-8 Plain Text
Title : SDH
Language : English
Default : No
Forced : No

Menu
00:00:00.000 : :1
00:06:38.875 : :2
00:13:02.583 : :3
00:19:53.125 : :4
00:29:06.125 : :5
00:33:58.250 : :6
00:40:22.417 : :7
00:45:28.000 : :8
00:50:35.000 : :9
00:58:40.750 : :10
01:03:23.667 : :11
01:12:31.750 : :12
01:17:42.917 : :13
01:24:49.000 : :14
01:33:33.708 : :15
01:39:25.583 : :16
Скриншоты
 

Вложения

  • 50,7 KB Просмотры: 0
    Личеров 0
    Сидеров 0
    Файлов 1
    Объем 10 GB
Ваш e-mail не будет опубликован. Он потребуется для подтверждения Вашего поста.
Оформление текста Нажмите «Ввод», чтобы отправить ответ.