За сегодня опубликовано 0 новых материалов.
Инструкция новичку Путеводитель по форуму Прокси для Telegram Показать подсказки , это бомба!

Скачать Сириус-егерь / Sirius the Jaeger [01-03 из 12] (2018) HDTVRip | Persona99 бесплатно через торрент

  • Получай до 480 рублей за каждого приглашенного пользователя!
    представляем Вам очередное расширение партнерской программы, подробности описаны тут -> ссылка
  • 90% материалов доступно к скачиванию после простой регистрации!
    Если же ты хочешь скачивать материалы без требования оставлять отзывы то получи группу "Новичок", 10 способов повышения описаны тут -> ссылка
  • К сожалению количество битых ссылок растет и мы уже не можем их оперативно восстанавливать поэтому просим помощи у каждого нашего пользователя.
    С сегодняшнего дня, за каждую восстановленную ссылку мы заплатим Вам.
    Подробнее тут -> ссылка
  • Перенесем твои заслуги с другого ресурса!
    Мы понимаем как сложно прокачивать аккаунты на форумах, вроде раскачал аккаунт, а тут появляется ресурс в 100 раз круче но тоже с системой прокачки и снова качать аккаунт...
    Предлагаем вам перенести Ваши заслуги на другом подобном ресурсе к нам.
    Подробности описаны тут -> ссылка
  • Вы можете получать по 2.5% с каждой покупки и продажи на маркете! Подробности в теме Партнёрская программа

Torrent_Bot

Торрент-Бот
Бот форума
4 Окт 2016
125
32
20
Информация о фильме
Название: Сириус-егерь
Оригинальное название: Sirius the Jaeger
Год выхода: 2018
Жанр: Приключения, вампиры, мистика
Режиссер: Андо Масахиро

Описание:
События аниме разворачиваются в Токио в 1930 году. На вокзал прибывает загадочная группа людей с чехлами для музыкальных инструментов. Как выяснится позже, они — охотники на вампиров, известные как «егери». Среди них невозмутимостью выделяется молодой человек по имени Юлий. Он — оборотень, одержимый местью, ведь вся его деревня была уничтожена вампирами. Все прибывшие на вокзал — участники смертельной битвы за Свод Сириуса. Противостояние должно определить дальнейшую судьбу вампиров. С чем же придётся столкнуться героям?..

Доп. информация:

Релиз GSGroup

Страна: Япония
Студия: P.A. Works
Продолжительность: ТВ (12 эп.) 00:24:00
Перевод: Любительский одноголосый (Persona99)
Субтитры: русские (внешние)
перевод Nika_Elrik, Zero


Качество: HDTVRip
Формат видео: AVI
Видео: XviD 720x400 pix, 1338 Kbps, 23.976 fps, 8 bits.
Аудио 1: AC3 48 КГц; 192 Кбит/сек , 2.0 Язык Русский (в составе контейнера) ; Озвучка: Любительский одноголосый (Persona99)
Аудио 2: AC3 48 КГц; 192 Кбит/сек , 2.0 оригинал (Японский)
Семпл

Подробные тех. данные
General
Complete name Sirius the Jaeger TV1_Sirius the Jaeger [Persona99](XviD 720x400 AC3).rus.jap.avi
Format : AVI
Format/Info : Audio Video Interleave
File size : 298 MiB
Duration : 24mn 0s
Overall bit rate : 1 736 Kbps
Writing application : VirtualDubMod 1.5.10.2 (build 2540/release)
Writing library : VirtualDubMod build 2540/release

Video
ID : 0
Format : MPEG-4 Visual
Format profile : Advanced [email protected]
Format settings, BVOP : 2
Format settings, QPel : No
Format settings, GMC : No warppoints
Format settings, Matrix : Default (H.263)
Codec ID : XVID
Codec ID/Hint : XviD
Duration : 24mn 0s
Bit rate : 1 338 Kbps
Width : 720 pixels
Height : 400 pixels
Display aspect ratio : 16:9
Frame rate : 23.976 fps
Color space : YUV
Chroma subsampling : 4:2:0
Bit depth : 8 bits
Scan type : Progressive
Compression mode : Lossy
Bits/(Pixel*Frame) : 0.194
Stream size : 230 MiB (77%)
Writing library : XviD 67

Audio #1
ID : 1
Format : AC-3
Format/Info : Audio Coding 3
Mode extension : CM (complete main)
Format settings, Endianness : Big
Codec ID : 2000
Duration : 24mn 0s
Bit rate mode : Constant
Bit rate : 192 Kbps
Channel(s) : 2 channels
Channel positions : Front: L R
Sampling rate : 48.0 KHz
Compression mode : Lossy
Stream size : 33.0 MiB (11%)
Alignment : Split accross interleaves
Interleave, duration : 42 ms (1.00 video frame)
Interleave, preload duration : 500 ms

Audio #2
ID : 2
Format : AC-3
Format/Info : Audio Coding 3
Mode extension : CM (complete main)
Format settings, Endianness : Big
Codec ID : 2000
Duration : 24mn 0s
Bit rate mode : Constant
Bit rate : 192 Kbps
Channel(s) : 2 channels
Channel positions : Front: L R
Sampling rate : 48.0 KHz
Compression mode : Lossy
Stream size : 33.0 MiB (11%)
Alignment : Split accross interleaves
Interleave, duration : 42 ms (1.00 video frame)
Interleave, preload duration : 500 ms
Список эпизодов
01. The Revenant Howls in Darkness
02. Deprived Talent
03. Indelible Memories
Скриншоты
 

Вложения

  • 19,2 KB Просмотры: 0
    Личеров 0
    Сидеров 0
    Файлов 9
    Объем 897,8 MB
Ваш e-mail не будет опубликован. Он потребуется для подтверждения Вашего поста.
Оформление текста Нажмите «Ввод», чтобы отправить ответ.