За сегодня опубликовано 32 новых материалов.
Инструкция новичку Путеводитель по форуму Прокси для Telegram Показать подсказки , это бомба!

Скачать Шутки в сторону 2: Миссия в Майами / Le flic de Belleville (2018) BDRip-AVC от ExKinoRay | iTunes бесплатно через торрент

  • 90% материалов доступно к скачиванию после простой регистрации!
    Если же ты хочешь скачивать материалы без требования оставлять отзывы то получи группу "Новичок", 10 способов повышения описаны тут -> ссылка
  • К сожалению количество битых ссылок растет и мы уже не можем их оперативно восстанавливать поэтому просим помощи у каждого нашего пользователя.
    С сегодняшнего дня, за каждую восстановленную ссылку мы заплатим Вам.
    Подробнее тут -> ссылка
  • Перенесем твои заслуги с другого ресурса!
    Мы понимаем как сложно прокачивать аккаунты на форумах, вроде раскачал аккаунт, а тут появляется ресурс в 100 раз круче но тоже с системой прокачки и снова качать аккаунт...
    Предлагаем вам перенести Ваши заслуги на другом подобном ресурсе к нам.
    Подробности описаны тут -> ссылка
  • Вы можете получать по 2.5% с каждой покупки и продажи на маркете! Подробности в теме Партнёрская программа
Если Вы не хотите скачивать, Вы всегда можете посмотреть онлайн, просто нажмите кнопку ниже :

Открыть плеер

Torrent_Bot

Торрент-Бот
Бот форума
4 Окт 2016
125
17
20


Информация о фильме
Название: Шутки в сторону 2: Миссия в Майами
Оригинальное название: Le flic de Belleville
Год выхода: 2018
Жанр: Комедия
Режиссер: Рашид Бушареб
В ролях: Луис Гусман, Омар Си, Эрик Эбони, Паулина Гальвес, Джастин Смит, Франк Гастамбид, Жюли Ферье, Биюна, Майк Бенитез, Джозеф Велез, Шэрон Парра, Кэти Кросс, Эдсон Жан, Вальдес Уильямс, Роман Коссовски, Шарлотта де Казабьянка, Мэттью Чизевер, Татум Прайс, Диана Висвелл

О фильме:
Во второй части детективной комедии пойдет речь об Османе - темнокожем пареньке, которому приходится быть одним из полицейских в полиции Парижа. Главный герой не отличается особым рвением достичь значительных успехов в служебной карьере. Но, при этом он всегда с доблестью выполняет все порученные задания.
На этот раз его отправили с виду спокойный и респектабельный Майами. Здесь его ждет встреча с чокнутым местным копом. Вместе эта парочка горе-полицейских должна вывести на чистую воду глобальную преступную сеть.



Страна: Франция
Студия: Ciné, Cofinova 14, Davis-Films, TF1 Films Production
Продолжительность: 01:51:18
Перевод: Дублированный | iTunes

Файл
Формат: MKV
Качество: BDRip-AVC (BDRemux 1080p)
Видео: MPEG-4 AVC, 784x328, - 859 Кбит/с
Аудио: AAC-HE, 2 ch, - 76 Кбит/с
Субтитры: Нет

MI
Общее
Уникальный идентификатор : 40924600382264467417415121755887386178 (0x1EC9CA94DA916487E5DA29309DF83E42)
Полное имя : D:MOVIESShutki.v.Storonu.2.Missija.v.Majami.2018.ExKinoRay.mkv
Формат : Matroska
Версия формата : Version 4 / Version 2
Размер файла : 746 Мбайт
Продолжительность : 1 ч. 51 м.
Общий поток : 936 Кбит/сек
Дата кодирования : UTC 2019-04-13 13:27:21
Программа кодирования : mkvmerge v32.0.0 ('Astral Progressions') 64-bit
Библиотека кодирования : libebml v1.3.7 + libmatroska v1.5.0

Видео
Идентификатор : 1
Формат : AVC
Формат/Информация : Advanced Video Codec
Профиль формата : [email protected]
Параметр CABAC формата : Да
Параметр RefFrames формата : 12 кадров
Идентификатор кодека : V_MPEG4/ISO/AVC
Продолжительность : 1 ч. 51 м.
Битрейт : 859 Кбит/сек
Ширина : 784 пикселя
Высота : 328 пикселей
Соотношение сторон : 2,40:1
Режим частоты кадров : Постоянный
Частота кадров : 23,976 (24000/1001) кадра/сек
Цветовое пространство : YUV
Субдискретизация насыщенности : 4:2:0
Битовая глубина : 8 бит
Тип развёртки : Прогрессивная
Бит/(Пиксели*Кадры) : 0.139
Размер потока : 684 Мбайт (92%)
Библиотека кодирования : x264 core 152 r2851kMod ba24899
Настройки программы : cabac=1 / ref=12 / deblock=1:-2:-2 / analyse=0x3:0x133 / me=umh / subme=10 / psy=1 / fade_compensate=0.00 / psy_rd=1.00:0.10 / mixed_ref=1 / me_range=32 / chroma_me=1 / trellis=2 / 8x8dct=1 / cqm=0 / deadzone=21,11 / fast_pskip=0 / chroma_qp_offset=-3 / threads=6 / lookahead_threads=1 / sliced_threads=0 / nr=0 / decimate=0 / interlaced=0 / bluray_compat=0 / constrained_intra=0 / bframes=12 / b_pyramid=2 / b_adapt=2 / b_bias=0 / direct=3 / weightb=1 / open_gop=0 / weightp=2 / keyint=240 / keyint_min=23 / scenecut=40 / intra_refresh=0 / rc_lookahead=40 / rc=2pass / mbtree=1 / bitrate=859 / ratetol=1.0 / qcomp=0.60 / qpmin=0 / qpmax=69 / qpstep=4 / cplxblur=20.0 / qblur=0.5 / ip_ratio=1.40 / aq=3:1.00
Default : Да
Forced : Нет

Аудио
Идентификатор : 2
Формат : AAC
Формат/Информация : Advanced Audio Codec
Профиль формата : HE-AAC / LC
Идентификатор кодека : A_AAC
Продолжительность : 1 ч. 51 м.
Битрейт : 76,0 Кбит/сек
Каналы : 2 канала
Расположение каналов : Front: L R
Частота : 48,0 КГц / 24,0 КГц
Частота кадров : 23,438 кадра/сек (1024 SPF)
Метод сжатия : С потерями
Задержка видео : 31 мс.
Размер потока : 60,5 Мбайт (8%)
Язык : Russian
Default : Да
Forced : Нет

Меню
00:00:00.000 : :Chapitre 01
00:08:32.178 : :Chapitre 02
00:18:40.994 : :Chapitre 03
00:29:11.124 : :Chapitre 04
00:40:28.175 : :Chapitre 05
00:49:32.010 : :Chapitre 06
00:59:33.444 : :Chapitre 07
01:09:57.109 : :Chapitre 08
01:19:50.494 : :Chapitre 09
01:30:13.741 : :Chapitre 10
01:38:14.388 : :Chapitre 11
01:48:23.163 : :Chapitre 12
Скриншоты

 

Вложения

  • 15,6 KB Просмотры: 0
    Личеров 0
    Сидеров 0
    Файлов 1
    Объем 745,6 MB
Ваш e-mail не будет опубликован. Он потребуется для подтверждения Вашего поста.
Оформление текста Нажмите «Ввод», чтобы отправить ответ.

Привет!

Мы группа людей которые решили помочь другим в решении их проблем, а так же пользователям с поиском самых свежих и качественных инфопродуктов. За 4 с небольшим месяца мы создали этот форум на который заходят ежедневно тысячи человек и посещаемость постоянно растёт. Мы создали панель лицензирования для защиты PHP скриптов от воровства и SEO панель для мониторинга наших сайтов и выбора верной стратегии их развития. Мы надеемся что то что мы создали пригодится Вам и возможно Вы поможете нам развиваться и совершенствоваться вместе с Вами.

Статистика форума

Темы
347.359
Сообщения
373.043
Пользователи
28.723
Новый пользователь
imaximiri

Приложения форума для iOS и Android


У ркн там нет власти ;)
Гостевуха
Помощь Пользователи
    A Chat Bot: Asqw покинул(а) комнату.