За сегодня опубликовано 15 новых материалов.
Инструкция новичку Путеводитель по форуму Прокси для Telegram Показать подсказки , это бомба!

Скачать Штамм Андромеда / The Andromeda Strain (1971) HDRip-AVC | D | GER Transfer бесплатно через торрент

  • Получай до 480 рублей за каждого приглашенного пользователя!
    представляем Вам очередное расширение партнерской программы, подробности описаны тут -> ссылка
  • 90% материалов доступно к скачиванию после простой регистрации!
    Если же ты хочешь скачивать материалы без требования оставлять отзывы то получи группу "Новичок", 10 способов повышения описаны тут -> ссылка
  • К сожалению количество битых ссылок растет и мы уже не можем их оперативно восстанавливать поэтому просим помощи у каждого нашего пользователя.
    С сегодняшнего дня, за каждую восстановленную ссылку мы заплатим Вам.
    Подробнее тут -> ссылка
  • Перенесем твои заслуги с другого ресурса!
    Мы понимаем как сложно прокачивать аккаунты на форумах, вроде раскачал аккаунт, а тут появляется ресурс в 100 раз круче но тоже с системой прокачки и снова качать аккаунт...
    Предлагаем вам перенести Ваши заслуги на другом подобном ресурсе к нам.
    Подробности описаны тут -> ссылка
  • Вы можете получать по 2.5% с каждой покупки и продажи на маркете! Подробности в теме Партнёрская программа
Если Вы не хотите скачивать, Вы всегда можете посмотреть онлайн, просто нажмите кнопку ниже :

Открыть плеер

Torrent_Bot

Торрент-Бот
Бот форума
4 Окт 2016
125
32
20



Информация о фильме:
Название: Штамм Андромеда
Оригинальное название: The Andromeda Strain
Год выхода: 1971
Жанр: фантастика, триллер
Режиссер: Роберт Уайз
В ролях: Артур Хилл, Дэвид Уэйн, Джеймс Олсон, Кейт Рид, Паула Келли, Джордж Митчелл, Рамон Биери, Кермит Мёрдок, Ричард О’Брайэн, Питер Хоббс

О фильме:
Фильм рассказывает историю о том, как вместе с космическим зондом на Землю попадает инопланетный вирус, способный вызывать мутацию у заражённых людей. Большей частью действия фильма разворачивается в подземной военной лаборатории в сердце пустыни, где ученые исследуют инопланетный вирус и пытаются найти способы противостоять ему.



Выпущено: США
Продолжительность: 02:10:37
Перевод: Профессиональный (полное дублирование)
Субтитры: Русские (полные, форсированные), английские (обычные, SDH)

Файл
Формат: MKV
Качество: HDRip-AVC
Видео: 752x320, 23.976 fps, x264, ~715 kbps
Аудио: AAC, 2/0 ch, ~80 kbps
Формат субтитров: softsub (SRT)

***Релиз от:-=DoMiNo=-

M/I
General
Unique ID : 178623886213965768019026270248127120293 (0x8661B5892A5E84F7D1E9F334813343A5)
Complete name : Штамм Андромеда.(2017).HDRip-AVC.GER.[-=DoMiNo=-].mkv
Format : Matroska
Format version : Version 4
File size : 745 MiB
Duration : 2 h 10 min
Overall bit rate : 797 kb/s
Movie name : Штамм Андромеда / The Andromeda Strain (1971)
Encoded date : UTC 2019-05-30 13:13:20
Writing application : mkvmerge v34.0.0 ('Sight and Seen') 64-bit
Writing library : libebml v1.3.7 + libmatroska v1.5.0
Attachments : poster.jpg / poster.jpg

Video
ID : 1
Format : AVC
Format/Info : Advanced Video Codec
Format profile : [email protected]
Format settings : CABAC / 14 Ref Frames
Format settings, CABAC : Yes
Format settings, Reference : 14 frames
Codec ID : V_MPEG4/ISO/AVC
Duration : 2 h 10 min
Bit rate : 715 kb/s
Width : 752 pixels
Height : 320 pixels
Display aspect ratio : 2.35:1
Frame rate mode : Constant
Frame rate : 23.976 (24000/1001) FPS
Color space : YUV
Chroma subsampling : 4:2:0
Bit depth : 8 bits
Scan type : Progressive
Bits/(Pixel*Frame) : 0.124
Stream size : 668 MiB (90%)
Title : RIP_BY_-=DoMiNo=-
Writing library : x264 core 157 r2969 d4099dd
Encoding settings : cabac=1 / ref=14 / deblock=1:-2:-2 / analyse=0x3:0x133 / me=umh / subme=11 / psy=1 / psy_rd=1.00:0.00 / mixed_ref=1 / me_range=48 / chroma_me=1 / trellis=2 / 8x8dct=1 / cqm=0 / deadzone=21,11 / fast_pskip=0 / chroma_qp_offset=-2 / threads=6 / lookahead_threads=1 / sliced_threads=0 / nr=0 / decimate=0 / interlaced=0 / bluray_compat=0 / constrained_intra=0 / bframes=16 / b_pyramid=2 / b_adapt=2 / b_bias=0 / direct=3 / weightb=1 / open_gop=0 / weightp=2 / keyint=250 / keyint_min=23 / scenecut=40 / intra_refresh=0 / rc=2pass / mbtree=0 / bitrate=715 / ratetol=1.0 / qcomp=0.70 / qpmin=0 / qpmax=69 / qpstep=4 / cplxblur=20.0 / qblur=0.5 / ip_ratio=1.40 / pb_ratio=1.30 / aq=3:1.00
Language : English
Default : Yes
Forced : No
Color range : Limited
Color primaries : BT.709
Transfer characteristics : BT.709
Matrix coefficients : BT.709

Audio
ID : 2
Format : AAC LC SBR
Format/Info : Advanced Audio Codec Low Complexity with Spectral Band Replication
Commercial name : HE-AAC
Format settings : Implicit
Codec ID : A_AAC-2
Duration : 2 h 10 min
Bit rate : 80.0 kb/s
Channel(s) : 2 channels
Channel layout : L R
Sampling rate : 48.0 kHz
Frame rate : 23.438 FPS (2048 SPF)
Compression mode : Lossy
Stream size : 74.7 MiB (10%)
Language : Russian
Default : Yes
Forced : No

Text #1
ID : 3
Format : UTF-8
Codec ID : S_TEXT/UTF8
Codec ID/Info : UTF-8 Plain Text
Duration : 2 h 10 min
Bit rate : 1 b/s
Count of elements : 30
Stream size : 1.46 KiB (0%)
Title : Forced
Language : Russian
Default : No
Forced : Yes

Text #2
ID : 4
Format : UTF-8
Codec ID : S_TEXT/UTF8
Codec ID/Info : UTF-8 Plain Text
Duration : 2 h 10 min
Bit rate : 113 b/s
Count of elements : 1340
Stream size : 108 KiB (0%)
Language : Russian
Default : Yes
Forced : No

Text #3
ID : 5
Format : UTF-8
Codec ID : S_TEXT/UTF8
Codec ID/Info : UTF-8 Plain Text
Duration : 2 h 5 min
Bit rate : 62 b/s
Count of elements : 1323
Stream size : 57.3 KiB (0%)
Language : English
Default : No
Forced : No

Text #4
ID : 6
Format : UTF-8
Codec ID : S_TEXT/UTF8
Codec ID/Info : UTF-8 Plain Text
Duration : 2 h 5 min
Bit rate : 65 b/s
Count of elements : 1337
Stream size : 59.8 KiB (0%)
Title : SDH
Language : English
Default : No
Forced : No

Menu
00:00:00.000 : en:00:00:00.000
00:05:11.895 : en:00:05:11.895
00:16:15.558 : en:00:16:15.558
00:25:54.428 : en:00:25:54.428
00:32:37.122 : en:00:32:37.122
00:46:12.061 : en:00:46:12.061
00:55:11.725 : en:00:55:11.725
01:09:42.678 : en:01:09:42.678
01:28:06.823 : en:01:28:06.823
01:41:52.773 : en:01:41:52.773
01:53:46.778 : en:01:53:46.778
02:02:49.571 : en:02:02:49.571
Скриншоты
 

Вложения

  • 15,5 KB Просмотры: 0
    Личеров 0
    Сидеров 0
    Файлов 1
    Объем 744,8 MB
Ваш e-mail не будет опубликован. Он потребуется для подтверждения Вашего поста.
Оформление текста Нажмите «Ввод», чтобы отправить ответ.