За сегодня опубликовано 10 новых материалов.
Инструкция новичку Путеводитель по форуму Прокси для Telegram Показать подсказки , это бомба!

Скачать Шпионские игры / Spy Game (2001) BDRip-HEVC 1080p от KORSAR | D, P, P2, А, L бесплатно через торрент

  • Получай до 480 рублей за каждого приглашенного пользователя!
    представляем Вам очередное расширение партнерской программы, подробности описаны тут -> ссылка
  • 90% материалов доступно к скачиванию после простой регистрации!
    Если же ты хочешь скачивать материалы без требования оставлять отзывы то получи группу "Новичок", 10 способов повышения описаны тут -> ссылка
  • К сожалению количество битых ссылок растет и мы уже не можем их оперативно восстанавливать поэтому просим помощи у каждого нашего пользователя.
    С сегодняшнего дня, за каждую восстановленную ссылку мы заплатим Вам.
    Подробнее тут -> ссылка
  • Перенесем твои заслуги с другого ресурса!
    Мы понимаем как сложно прокачивать аккаунты на форумах, вроде раскачал аккаунт, а тут появляется ресурс в 100 раз круче но тоже с системой прокачки и снова качать аккаунт...
    Предлагаем вам перенести Ваши заслуги на другом подобном ресурсе к нам.
    Подробности описаны тут -> ссылка
  • Вы можете получать по 2.5% с каждой покупки и продажи на маркете! Подробности в теме Партнёрская программа
Если Вы не хотите скачивать, Вы всегда можете посмотреть онлайн, просто нажмите кнопку ниже :

Открыть плеер

Torrent_Bot

Торрент-Бот
Бот форума
4 Окт 2016
125
32
20


Информация о фильме
Название: Шпионские игры
Оригинальное название: Spy Game
Год выхода: 2001
Жанр: Боевик, триллер, криминал
Режиссер: Тони Скотт
В ролях: Роберт Редфорд, Брэд Питт, Катрин МакКормак, Стивен Диллэйн, Ларри Бриггман, Марианн Жан-Баптист, Мэттью Марш, Тодд Бойс, Майкл Пол Чан, Гаррик Хэгон

О фильме:
Натан Мьюир — специальный агент ЦРУ, ветеран разведки. В свой последний рабочий день перед уходом на пенсию он узнает, что его протеже, талантливый оперативник Том Бишоп, находится в китайской тюрьме, и ему грозит смертная казнь. Профессионалу экстра-класса Мьюиру потребовалось совсем немного времени, чтобы понять, что Бишопа отдадут «на заклание» властям Китая. Теперь у Нэйтэна остаются считанные часы для того, чтобы, рискуя собственной головой, провернуть невиданную по дерзости операцию и спасти своего ученика.



Страна: США
Студия: Beacon Communications LLC, Metropolitan Filmexport, Red Wagon Productions
Продолжительность: 02:06:38
Перевод: Дублированный, профессиональный (многоголосый, двухголосый), авторский одноголосый

Файл
Кодек: HEVC x265 10bit
Качество: BDRip-HEVC 1080p
Видео: 1920x814 (2.35:1), 10,9 Мбит/сек, 0.292 бит/(Пиксели*Кадры), 23.976 (24000/1001) кадр/сек, HEVC ([email protected]@High) 10 бит
Звук:
Аудио 01: Russian: AC3, 6 ch, 448 Кбит/с |Двухголосый закадровый, Blu-ray CEE|
Аудио 02: Russian: AC3, 2 ch, 224 Кбит/с |Дубляж, Первый канал|
Аудио 03: Russian: AC3, 6 ch, 448 Кбит/с |Многоголосый закадровый, Карусель|
Аудио 04: Russian: AC3, 6 ch, 448 Кбит/с |Многоголосый закадровый, DVD R5|
Аудио 05: Russian: AC3, 6 ch, 448 Кбит/с |Многоголосый закадровый, Фанатики|
Аудио 06: Russian: AC3, 6 ch, 448 Кбит/с |Двухголосый закадровый, П.Гланц и И.Королёва|
Аудио 07: Russian: AC3, 6 ch, 448 Кбит/с |Одноголосый закадровый, М.Чадов|
Аудио 08: Russian: AC3, 6 ch, 448 Кбит/с |Одноголосый закадровый, А.Гаврилов|
Аудио 09: Russian: AC3, 6 ch, 448 Кбит/с |Одноголосый закадровый, Ю.Живов|
Аудио 10: Ukrainian: AC3, 2 ch, 192 Кбит/с |Многоголосый закадровый, ICTV|
Аудио 11: English: AC3, 6 ch, 448 Кбит/с |Оригинал|
Субтитры: Русские (форсированные, полные), English
Навигация по главам: Есть

Mediainfo
x265 [info]: frame I: 2185, Avg QP:18.58 kb/s: 31767.18
x265 [info]: frame P: 33820, Avg QP:19.79 kb/s: 18913.91
x265 [info]: frame B: 146179, Avg QP:21.84 kb/s: 8780.19
x265 [info]: consecutive B-frames: 10.7% 3.8% 7.0% 26.3% 7.4% 23.1% 4.2% 11.7% 1.5% 1.9% 0.6% 1.4% 0.3% 0.3%

General
Unique ID : 215059596586275129671334468335542352861 (0xA1CAF8C0A1DA14CAE2FBDC90C95A3BDD)
Complete name : T:HEVC3Spy Game (2001) BDRip-HEVC 1080p - KORSAR.mkv
Format : Matroska
Format version : Version 4 / Version 2
File size : 13.6 GiB
Duration : 2 h 6 min
Overall bit rate : 15.4 Mb/s
Movie name : Spy Game (2001)_rip_by_Cthulhu
Encoded date : UTC 2019-03-17 16:25:50
Writing application : mkvmerge v28.2.0 ('The Awakening') 64-bit
Writing library : libebml v1.3.6 + libmatroska v1.4.9
Cover : Yes
Attachments : cover.jpg

Video
ID : 1
Format : HEVC
Format/Info : High Efficiency Video Coding
Format profile : Main [email protected]@High
Codec ID : V_MPEGH/ISO/HEVC
Duration : 2 h 6 min
Bit rate : 10.9 Mb/s
Width : 1 920 pixels
Height : 814 pixels
Display aspect ratio : 2.35:1
Frame rate mode : Constant
Frame rate : 23.976 (23976/1000) FPS
Original frame rate : 23.976 (24000/1001) FPS
Color space : YUV
Chroma subsampling : 4:2:0
Bit depth : 10 bits
Bits/(Pixel*Frame) : 0.292
Stream size : 9.68 GiB (71%)
Writing library : x265 3.0_Au+4-dcbec33bfb0f:[Windows][GCC 9.0.1][64 bit] 10bit
Encoding settings : cpuid=1111039 / frame-threads=4 / numa-pools=16 / wpp / no-pmode / no-pme / no-psnr / no-ssim / log-level=2 / input-csp=1 / input-res=1920x814 / interlace=0 / total-frames=182184 / level-idc=41 / high-tier=1 / uhd-bd=0 / ref=5 / no-allow-non-conformance / no-repeat-headers / annexb / no-aud / no-hrd / info / hash=0 / no-temporal-layers / open-gop / min-keyint=23 / keyint=240 / gop-lookahead=0 / bframes=13 / b-adapt=2 / b-pyramid / bframe-bias=0 / rc-lookahead=60 / lookahead-slices=1 / scenecut=40 / radl=0 / no-splice / no-intra-refresh / ctu=32 / min-cu-size=8 / rect / amp / max-tu-size=32 / tu-inter-depth=4 / tu-intra-depth=4 / limit-tu=1 / rdoq-level=0 / dynamic-rd=0.00 / no-ssim-rd / signhide / no-tskip / nr-intra=0 / nr-inter=0 / no-constrained-intra / no-strong-intra-smoothing / max-merge=5 / limit-refs=3 / limit-modes / me=3 / subme=7 / merange=57 / temporal-mvp / no-weightp / no-weightb / no-analyze-src-pics / deblock=-3:-2 / no-sao / no-sao-non-deblock / rd=6 / no-early-skip / no-rskip / no-fast-intra / no-tskip-fast / no-cu-lossless / no-b-intra / no-splitrd-skip / rdpenalty=0 / psy-rd=2.00 / psy-rdoq=0.00 / no-rd-refine / no-lossless / cbqpoffs=0 / crqpoffs=0 / rc=crf / crf=19.0 / qcomp=0.68 / qpstep=4 / stats-write=0 / stats-read=0 / vbv-maxrate=50000 / vbv-bufsize=50000 / vbv-init=0.9 / crf-max=0.0 / crf-min=0.0 / ipratio=1.40 / pbratio=1.30 / aq-mode=1 / aq-strength=1.00 / no-cutree / zone-count=0 / no-strict-cbr / qg-size=32 / no-rc-grain / qpmax=69 / qpmin=0 / no-const-vbv / sar=1 / overscan=0 / videoformat=5 / range=0 / colorprim=1 / transfer=1 / colormatrix=1 / chromaloc=0 / display-window=0 / max-cll=0,0 / min-luma=0 / max-luma=1023 / log2-max-poc-lsb=8 / vui-timing-info / vui-hrd-info / slices=1 / no-opt-qp-pps / no-opt-ref-list-length-pps / no-multi-pass-opt-rps / scenecut-bias=0.05 / no-opt-cu-delta-qp / no-aq-motion / no-hdr / no-hdr-opt / no-dhdr10-opt / no-idr-recovery-sei / analysis-reuse-level=5 / scale-factor=0 / refine-intra=0 / refine-inter=0 / refine-mv=0 / refine-ctu-distortion=0 / no-limit-sao / ctu-info=0 / no-lowpass-dct / refine-analysis-type=0 / copy-pic=1 / max-ausize-factor=1.0 / no-dynamic-refine / no-single-sei / hevc-aq / qp-adaptation-range=2.00
Language : English
Default : Yes
Forced : No
Color range : Limited
Color primaries : BT.709
Transfer characteristics : BT.709
Matrix coefficients : BT.709

Audio #1
ID : 2
Format : AC-3
Format/Info : Audio Coding 3
Mode extension : CM (complete main)
Format settings, Endianness : Big
Codec ID : A_AC3
Duration : 2 h 6 min
Bit rate mode : Constant
Bit rate : 448 kb/s
Channel(s) : 6 channels
Channel positions : Front: L C R, Side: L R, LFE
Sampling rate : 48.0 kHz
Frame rate : 31.250 FPS (1536 spf)
Compression mode : Lossy
Stream size : 405 MiB (3%)
Title : DVO - Blu-ray CEE
Language : Russian
Default : Yes
Forced : No

Audio #2
ID : 3
Format : AC-3
Format/Info : Audio Coding 3
Mode extension : CM (complete main)
Format settings, Endianness : Big
Codec ID : A_AC3
Duration : 2 h 6 min
Bit rate mode : Constant
Bit rate : 224 kb/s
Channel(s) : 2 channels
Channel positions : Front: L R
Sampling rate : 48.0 kHz
Frame rate : 31.250 FPS (1536 spf)
Compression mode : Lossy
Stream size : 203 MiB (1%)
Title : DUB - 1 канал
Language : Russian
Default : No
Forced : No

Audio #3
ID : 4
Format : AC-3
Format/Info : Audio Coding 3
Mode extension : CM (complete main)
Format settings, Endianness : Big
Codec ID : A_AC3
Duration : 2 h 6 min
Bit rate mode : Constant
Bit rate : 448 kb/s
Channel(s) : 6 channels
Channel positions : Front: L C R, Side: L R, LFE
Sampling rate : 48.0 kHz
Frame rate : 31.250 FPS (1536 spf)
Compression mode : Lossy
Stream size : 406 MiB (3%)
Title : MVO - Карусель
Language : Russian
Default : No
Forced : No

Audio #4
ID : 5
Format : AC-3
Format/Info : Audio Coding 3
Mode extension : CM (complete main)
Format settings, Endianness : Big
Codec ID : A_AC3
Duration : 2 h 6 min
Bit rate mode : Constant
Bit rate : 448 kb/s
Channel(s) : 6 channels
Channel positions : Front: L C R, Side: L R, LFE
Sampling rate : 48.0 kHz
Frame rate : 31.250 FPS (1536 spf)
Compression mode : Lossy
Stream size : 406 MiB (3%)
Title : MVO - DVD R5
Language : Russian
Default : No
Forced : No

Audio #5
ID : 6
Format : AC-3
Format/Info : Audio Coding 3
Mode extension : CM (complete main)
Format settings, Endianness : Big
Codec ID : A_AC3
Duration : 2 h 6 min
Bit rate mode : Constant
Bit rate : 448 kb/s
Channel(s) : 6 channels
Channel positions : Front: L C R, Side: L R, LFE
Sampling rate : 48.0 kHz
Frame rate : 31.250 FPS (1536 spf)
Compression mode : Lossy
Stream size : 406 MiB (3%)
Title : MVO - Фанатики
Language : Russian
Default : No
Forced : No

Audio #6
ID : 7
Format : AC-3
Format/Info : Audio Coding 3
Mode extension : CM (complete main)
Format settings, Endianness : Big
Codec ID : A_AC3
Duration : 2 h 6 min
Bit rate mode : Constant
Bit rate : 448 kb/s
Channel(s) : 6 channels
Channel positions : Front: L C R, Side: L R, LFE
Sampling rate : 48.0 kHz
Frame rate : 31.250 FPS (1536 spf)
Compression mode : Lossy
Stream size : 406 MiB (3%)
Title : DVO - П.Гланц и И.Королёва
Language : Russian
Default : No
Forced : No

Audio #7
ID : 8
Format : AC-3
Format/Info : Audio Coding 3
Mode extension : CM (complete main)
Format settings, Endianness : Big
Codec ID : A_AC3
Duration : 2 h 6 min
Bit rate mode : Constant
Bit rate : 448 kb/s
Channel(s) : 6 channels
Channel positions : Front: L C R, Side: L R, LFE
Sampling rate : 48.0 kHz
Frame rate : 31.250 FPS (1536 spf)
Compression mode : Lossy
Stream size : 406 MiB (3%)
Title : AVO - Чадов
Language : Russian
Default : No
Forced : No

Audio #8
ID : 9
Format : AC-3
Format/Info : Audio Coding 3
Mode extension : CM (complete main)
Format settings, Endianness : Big
Codec ID : A_AC3
Duration : 2 h 6 min
Bit rate mode : Constant
Bit rate : 448 kb/s
Channel(s) : 6 channels
Channel positions : Front: L C R, Side: L R, LFE
Sampling rate : 48.0 kHz
Frame rate : 31.250 FPS (1536 spf)
Compression mode : Lossy
Stream size : 406 MiB (3%)
Title : AVO - Гаврилов
Language : Russian
Default : No
Forced : No

Audio #9
ID : 10
Format : AC-3
Format/Info : Audio Coding 3
Mode extension : CM (complete main)
Format settings, Endianness : Big
Codec ID : A_AC3
Duration : 2 h 6 min
Bit rate mode : Constant
Bit rate : 448 kb/s
Channel(s) : 6 channels
Channel positions : Front: L C R, Side: L R, LFE
Sampling rate : 48.0 kHz
Frame rate : 31.250 FPS (1536 spf)
Compression mode : Lossy
Stream size : 406 MiB (3%)
Title : AVO - Живов
Language : Russian
Default : No
Forced : No

Audio #10
ID : 11
Format : AC-3
Format/Info : Audio Coding 3
Mode extension : CM (complete main)
Format settings, Endianness : Big
Codec ID : A_AC3
Duration : 2 h 6 min
Bit rate mode : Constant
Bit rate : 192 kb/s
Channel(s) : 2 channels
Channel positions : Front: L R
Sampling rate : 48.0 kHz
Frame rate : 31.250 FPS (1536 spf)
Compression mode : Lossy
Stream size : 174 MiB (1%)
Title : MVO - ICTV
Language : Ukrainian
Default : No
Forced : No

Audio #11
ID : 12
Format : AC-3
Format/Info : Audio Coding 3
Mode extension : CM (complete main)
Format settings, Endianness : Big
Codec ID : A_AC3
Duration : 2 h 6 min
Bit rate mode : Constant
Bit rate : 448 kb/s
Channel(s) : 6 channels
Channel positions : Front: L C R, Side: L R, LFE
Sampling rate : 48.0 kHz
Frame rate : 31.250 FPS (1536 spf)
Compression mode : Lossy
Stream size : 406 MiB (3%)
Title : Original
Language : English
Default : No
Forced : No

Text #1
ID : 13
Format : UTF-8
Codec ID : S_TEXT/UTF8
Codec ID/Info : UTF-8 Plain Text
Duration : 2 h 1 min
Bit rate : 96 b/s
Count of elements : 1343
Stream size : 85.4 KiB (0%)
Language : Russian
Default : No
Forced : No

Text #2
ID : 14
Format : UTF-8
Codec ID : S_TEXT/UTF8
Codec ID/Info : UTF-8 Plain Text
Duration : 1 h 46 min
Bit rate : 0 b/s
Count of elements : 29
Stream size : 675 Bytes (0%)
Title : force
Language : English
Default : No
Forced : No

Text #3
ID : 15
Format : UTF-8
Codec ID : S_TEXT/UTF8
Codec ID/Info : UTF-8 Plain Text
Duration : 2 h 1 min
Bit rate : 56 b/s
Count of elements : 1442
Stream size : 50.0 KiB (0%)
Title : SDH
Language : English
Default : No
Forced : No

Text #4
ID : 16
Format : UTF-8
Codec ID : S_TEXT/UTF8
Codec ID/Info : UTF-8 Plain Text
Duration : 2 h 1 min
Bit rate : 55 b/s
Count of elements : 1399
Stream size : 49.3 KiB (0%)
Title : SDH-Colored
Language : English
Default : No
Forced : No

Menu
00:00:00.000 : en:
00:08:25.086 : en:
00:11:55.753 : en:
00:19:08.939 : en:
00:28:00.719 : en:
00:33:23.125 : en:
00:40:14.327 : en:
00:47:56.289 : en:
00:50:51.047 : en:
00:57:18.851 : en:
01:01:48.036 : en:
01:08:16.884 : en:
01:15:06.126 : en:
01:22:26.899 : en:
01:24:55.546 : en:
01:26:04.993 : en:
01:30:24.710 : en:
01:35:34.478 : en:
01:38:25.399 : en:
01:48:53.652 : en:
01:54:37.161 : en:
02:01:34.662 : en:
Скриншоты


Релиз от: Cthulhu
 

Вложения

  • 69,1 KB Просмотры: 0
    Личеров 0
    Сидеров 0
    Файлов 1
    Объем 13,6 GB
Ваш e-mail не будет опубликован. Он потребуется для подтверждения Вашего поста.
Оформление текста Нажмите «Ввод», чтобы отправить ответ.