Инструкция новичку Путеводитель по форуму Прокси для Telegram Показать подсказки , это бомба!

Скачать Северное сияние (2018) WEB-DL 720p бесплатно через торрент

Если Вы не хотите скачивать, Вы всегда можете посмотреть онлайн, просто нажмите кнопку ниже :

Открыть плеер

Torrent_Bot

Торрент-Бот
Бот форума
4 Окт 2016
98
12
Информация о фильме
Оригинальное название: Северное сияние
Год выхода: 2018
Жанр: детектив, мистика
Режиссер: Дарья Семенова
Сценарий: Белла Прибылова, Виктория Платова
В ролях: Ирина Горячева, Анна Дулова, Игорь Головин, Константин Шелестун, Наталия Варфоломеева, Пётр Харченко, Галина Бокашевская, Никита Плащевский, Александра Большакова, Владимир Котов, Хельга Филиппова и др.

О фильме:
Столкнувшись с затяжным творческим кризисом, автор популярных детективных романов Агата Север решает взять небольшой отпуск и вместе со своей помощницей Марусей отправляется на один из островов в Ладожском озере. По прибытии на место Агата и Маруся становятся свидетелями происшествия, которое едва не заканчивается трагедией. Они спасают молодую девушку, которая упала с крутого обрыва и лишь чудом осталась жива. Агата сразу понимает, что произошедшее – вовсе не несчастный случай, а спланированное убийство. Правда, мужчину, которого она считала подозреваемым, вскоре тоже находят мертвым. На острове продолжают происходить странные и пугающие события, местные связывают их с тайнами и историей этих мест (якобы где-то здесь, по преданию, проходит граница с миром мертвых). Однако Агата уверена, что за всем этим стоит один человек, и он по-прежнему где-то рядом, ведь из-за разыгравшегося шторма покинуть остров пока невозможно. Продолжая свое расследование, Агата начинает узнавать места, которые когда-то видела в своих детских кошмарах: и похоже, это были вовсе не сны, а воспоминания о том, что когда-то давно произошло на этом острове.



Страна: Россия
Продолжительность: 2 x ~ 00:45:00
Язык: Русский

Файл
Кодек: AVC MPEG-4
Качество: WEB-DL 720p
Видео: 1280x720 (16:9), 25.000 fps, AVC MPEG-4, [email protected] ~3015 kbps, 0.131 bit/pixel
Звук: 48 kHz, AC3 Dolby Digital, 2/0 (L,R) ch, ~192 kbps
Субтитры: отсутствуют

Реклама отсутствует.

Трейлер
Трейлер
MediaInfo
General
Unique ID : 217545741167377030265365230373945995913 (0xA3A9C924DE4D577CA411C9D21A7FF289)
Complete name : E:Severnoe siyanie.2018_Klayd X1.Severnoe siyanie.2018_Klayd X.mkv
Format : Matroska
File size : 1.02 GiB
Duration : 44mn 32s
Overall bit rate : 3 272 Kbps
Movie name : Severnoe.siyanie.e01.2018.WEB-DL.(720p).Getty
Encoded date : UTC 2018-06-01 21:10:36
Writing application : mkvmerge v7.8.0 ('River Man') 32bit built on Mar 27 2015 16:18:02
Writing library : libebml v1.3.1 + libmatroska v1.4.2

Video
ID : 1
Format : AVC
Format/Info : Advanced Video Codec
Format profile : [email protected]
Format settings, CABAC : Yes
Format settings, ReFrames : 4 frames
Codec ID : V_MPEG4/ISO/AVC
Duration : 44mn 32s
Bit rate mode : Constant
Bit rate : 3 015 Kbps
Nominal bit rate : 3 200 Kbps
Width : 1 280 pixels
Height : 720 pixels
Display aspect ratio : 16:9
Frame rate mode : Variable
Frame rate : 25.000 fps
Color space : YUV
Chroma subsampling : 4:2:0
Bit depth : 8 bits
Scan type : Progressive
Bits/(Pixel*Frame) : 0.131
Stream size : 960 MiB (92%)

Audio
ID : 2
Format : AC-3
Format/Info : Audio Coding 3
Mode extension : CM (complete main)
Codec ID : A_AC3
Duration : 44mn 32s
Bit rate mode : Constant
Bit rate : 192 Kbps
Channel(s) : 2 channels
Channel positions : Front: L R
Sampling rate : 48.0 KHz
Bit depth : 16 bits
Compression mode : Lossy
Stream size : 61.2 MiB (6%)
Скриншоты
 

Вложения

  • 11,5 KB Просмотры: 0
    Личеров 0
    Сидеров 0
    Файлов 2
    Объем 2,1 GB
Ваш e-mail не будет опубликован. Он потребуется для подтверждения Вашего поста.
Оформление текста Нажмите «Ввод», чтобы отправить ответ.

Привет!

Мы группа людей которые решили помочь другим в решении их проблем, а так же пользователям с поиском самых свежих и качественных инфопродуктов. За 4 с небольшим месяца мы создали этот форум на который заходят ежедневно тысячи человек и посещаемость постоянно растёт. Мы создали панель лицензирования для защиты PHP скриптов от воровства и SEO панель для мониторинга наших сайтов и выбора верной стратегии их развития. Мы надеемся что то что мы создали пригодится Вам и возможно Вы поможете нам развиваться и совершенствоваться вместе с Вами.

Статистика форума

Темы
337.479
Сообщения
359.804
Пользователи
25.410
Новый пользователь
GoGo

Приложения форума для iOS и Android


У ркн там нет власти ;)
Гостевуха
Помощь Пользователи
  • Captain @ Captain:
    @mizaider, ты там живой?
    Цитата
  • K Chat Bot:
    Гость kkifkaa присоединился к комнате.
  • K (Гость) kkifkaa:
    Всем привет!
    Цитата
  • K (Гость) kkifkaa:
    mizaider тут есть?
    Цитата
  • K Chat Bot:
    Гость kkifkaa присоединился к комнате.
  • K (Гость) kkifkaa:
    Здравствуйте уважаемые члены форума. Подскажите пож-та, что можно сделать если я был заблокирован якобы за: «Вы были заблокированы по следующей причине: Копирование материалов на другие ресурсы». Самое страшное, то что тебя обвиняют и не дают возможность пообщаться и разобраться в причинах. Кстати в такой ситуации может быть каждый из нас. Вот так стараешься размещаешь тут материал, а тебя без разбирательств в бан. И нет возможности обратится в тех поддержку т.к. твой аккаут заблокирован. Подскажите пож-та, как можно связаться с администрацией, чтобы была проведена проверка? Сейчас я новичок и как раз в этот день для нас заливал на форум новые курсы (один залил, второй не успел). Я сначала подумал, что какой-то запрещений материал разместил, а потом понял, что меня обвинили в том, что я не делал.
    Цитата
  • K (Гость) kkifkaa:
    mizaider ты здесь помоги пожалуйста!
    Цитата
  • mizaider @ mizaider:
    Вопрос решен.
    Цитата
  • goodness @ goodness:
    Добрый вечер уважаемые форумчане!)
    Цитата
  • goodness @ goodness:
    Вопрос к администрации: Имеется одна точка доступа wifi на квартиру, вашим форумом пользуюсь пока что только я, но хотел бы зарегистрировать и свою девушку,
    Цитата
  • goodness @ goodness:
    система нас не забанит из-за того что мы с одной точки доступа но с разных устройств?
    Цитата
  • mizaider @ mizaider:
    Не забанит
    Цитата
  • Captain @ Captain:
    Батя в здание
    Цитата
  • 13SASHA13 @ 13SASHA13:
    Цитата
  • Uggi Chat Bot:
    Uggi покинул(а) комнату.
  • M Chat Bot:
    mr_robot_i2p покинул(а) комнату.
  • Captain @ Captain:
    Батя в здание
    Цитата
  • J Chat Bot:
    joker567 покинул(а) комнату.
    J Chat Bot: joker567 покинул(а) комнату.