За сегодня опубликовано 15 новых материалов.
Инструкция новичку Путеводитель по форуму Прокси для Telegram Показать подсказки , это бомба!

Скачать Салют-7 (2017) BDRemux 2160p от ExKinoRay | 4K | HDR | GER Transfer | Лицензия | Расширенная версия бесплатно через торрент

  • Получай до 480 рублей за каждого приглашенного пользователя!
    представляем Вам очередное расширение партнерской программы, подробности описаны тут -> ссылка
  • 90% материалов доступно к скачиванию после простой регистрации!
    Если же ты хочешь скачивать материалы без требования оставлять отзывы то получи группу "Новичок", 10 способов повышения описаны тут -> ссылка
  • К сожалению количество битых ссылок растет и мы уже не можем их оперативно восстанавливать поэтому просим помощи у каждого нашего пользователя.
    С сегодняшнего дня, за каждую восстановленную ссылку мы заплатим Вам.
    Подробнее тут -> ссылка
  • Перенесем твои заслуги с другого ресурса!
    Мы понимаем как сложно прокачивать аккаунты на форумах, вроде раскачал аккаунт, а тут появляется ресурс в 100 раз круче но тоже с системой прокачки и снова качать аккаунт...
    Предлагаем вам перенести Ваши заслуги на другом подобном ресурсе к нам.
    Подробности описаны тут -> ссылка
  • Вы можете получать по 2.5% с каждой покупки и продажи на маркете! Подробности в теме Партнёрская программа
Если Вы не хотите скачивать, Вы всегда можете посмотреть онлайн, просто нажмите кнопку ниже :

Открыть плеер

Torrent_Bot

Торрент-Бот
Бот форума
4 Окт 2016
125
32
20
e6d97a09f43761ca56d52fbb5c5e4e8d.jpg

Салют-7





Информация о фильме
Оригинальное название: Салют-7
Год выпуска: 2017
Жанр:Драма, приключения, триллер
Выпущено: Россия, Канал Россия, Кинокомпания CTB, Lemon Films Studio, Vita Aktiva
Режиссер: Клим Шипенко
В ролях: Владимир Вдовиченков, Павел Деревянко, Александр Самойленко, Виталий Хаев, Оксана Фандера, Любовь Аксёнова, Полина Руденко, Александра Серебрякова, Мария Миронова мл., Наталья Кудряшова (I)
Продолжительность: 01:58:53

Описание:

Космическая станция «Салют-7», находящаяся на орбите в беспилотном режиме, неожиданно перестает отвечать на сигналы центра управления полетом. Принято решение об отправке на орбиту спасательной экспедиции. Космический экипаж должен найти «мертвую» станцию и впервые в мире провести стыковку с 20-тонной глыбой неуправляемого железа. Космонавты понимают, что шансов вернуться на Землю у них немного. Но этот рискованный путь — единственно возможный. Они должны не только проникнуть на «Салют-7», но и оживить его. Смогут ли два человека предотвратить неминуемую катастрофу и спасти планету от падения станции? Спасательная экспедиция превращается в опасное испытание. На орбите разворачивается настоящий космический детектив. Фильм основан на реальных событиях: полет к станции «Салют-7» в 1985 году считается самым сложным полетом в истории космонавтики.

2e69dbb9429b22949aa53e503c9258dc.gife928147f62936f242011c4bf1b5ee8f8.gif



Файл
Контейнер: MKV
Качество: BDRemux 2160p
Видео: HEVC, 67 Mбит/с, 3840x2160

Аудио #1: |RUS| DTS MA, 48.0 kHz, 8ch, 2 442 kb/s VBR
Аудио #2: |RUS| AC-3, 48.0 kHz, 6ch, 640 kb/s, CBR

Субтитры: Русские(Forced)


Релиз от: 784e0fca936493fe2f2fa3ae77066cd7.gifАвтор релиза: Ivantsov

Скриншоты
074bf241b5245477e8e213d789b0ebd8.jpg1284e5a2ad0cec70de125eb834de79a3.jpg
ba7e033585b73fd8a05a83448555061f.jpg23076474dce640640debd58f3e22eef6.jpg
313255322ec4591a7b1071a4a5bba0cb.jpgb2ba69c0add94452c0c532a31ffb0847.jpg

Интересно
Знаете ли вы, что...
На подготовку к съемкам фильма ушло 8 месяцев. Часть съемок проходила в пригороде Санкт-Петербурга, где в большом ангаре были построены декорации космической станции, центра управления полетами и советской квартиры. Также съемки велись в Москве и США.
Готовясь к съемкам, исполнители главных ролей и режиссер встречались с реальными участниками тех событий — космонавтами Владимиром Джанибековым и Виктором Савиных. В фильме были изменены отдельные детали их биографий, поэтому персонажи Владимира Вдовиченкова и Павла Деревянко получили другие фамилии.
В качестве консультантов в проект были привлечены специалисты из «Роскосмоса» и РКК «Энергия».
Первоначально премьера фильма была намечена на 6 апреля 2017 года. Однако в итоге она была перенесена на 12 октября 2017 года.
Съемочный период составил 83 дня.
В основе фильма лежат реальные события, произошедшие в 1985 году. Когда была потеряна связь с советской космической станцией «Салют-7», на орбиту отправили Владимира Джанибекова и Виктора Савиных. Это был первый в истории случай стыковки с неуправляемым объектом в космосе.
Между двумя операторами фильма были распределены земные и космические сцены. Земными занимался Иван Бурлаков, а космическими – Сергей Астахов.

Награды
Золотой орел, 2018 год
Победитель (2):
Лучший фильм
Лучший монтаж
Номинации (4):
Лучшая мужская роль (Владимир Вдовиченков)
Лучшая мужская роль второго плана (Александр Самойленко)
Лучшая работа звукорежиссера
Лучшие визуальные эффекты

MI
Общее
Уникальный идентификатор : 82231479586873238242089021308294850088 (0x3DDD34F6CB0398A942222C6A90A2E628)
Полное имя : Salyut.7.2017.2160p.BDRemux.HEVC.HDR.IVA.ExKinoRay.mkv
Формат : Matroska
Версия формата : Version 4 / Version 2
Размер файла : 58,2 Гбайт
Продолжительность : 1 ч. 58 м.
Общий поток : 70,1 Мбит/сек
Название фильма : Салют-7 ( 2017 ) 4K, HDR | IVA | ExKinoRay
Дата кодирования : UTC 2018-03-26 14:45:19
Программа кодирования : mkvmerge v21.0.0 ('Tardigrades Will Inherit The Earth') 64-bit
Библиотека кодирования : libebml v1.3.5 + libmatroska v1.4.8
Обложка : Yes

Видео
Идентификатор : 1
Формат : HEVC
Формат/Информация : High Efficiency Video Coding
Профиль формата : Main [email protected]@High
Идентификатор кодека : V_MPEGH/ISO/HEVC
Продолжительность : 1 ч. 58 м.
Битрейт : 67,0 Мбит/сек
Ширина : 3840 пикселей
Высота : 2160 пикселей
Соотношение сторон : 16:9
Режим частоты кадров : Постоянный
Частота кадров : 24,000 кадра/сек
Стандарт вещания : Component
Цветовое пространство : YUV
Субдискретизация насыщенности : 4:2:0 (Type 2)
Битовая глубина : 10 бит
Бит/(Пиксели*Кадры) : 0.337
Размер потока : 55,6 Гбайт (96%)
Язык : Russian
Default : Да
Forced : Нет
Цветовой диапазон : Limited
Основные цвета : BT.2020
Характеристики трансфера : PQ
Коэффициенты матрицы : BT.2020 non-constant
MasteringDisplay_ColorPrimaries : Display P3
MasteringDisplay_Luminance : min: 0.0050 cd/m2, max: 1000 cd/m2

Аудио #1
Идентификатор : 2
Формат : DTS
Формат/Информация : Digital Theater Systems
Профиль формата : MA / Core
Идентификатор кодека : A_DTS
Продолжительность : 1 ч. 58 м.
Вид битрейта : Переменный / Постоянный
Битрейт : 2442 Кбит/сек / 1509 Кбит/сек
Каналы : 8 каналов / 6 каналов
Расположение каналов : Front: L C R, Side: L R, Back: L R, LFE / Front: L C R, Side: L R, LFE
Частота : 48,0 КГц
Частота кадров : 93,750 кадра/сек (512 SPF)
Битовая глубина : 16 бит
Метод сжатия : Без потерь / Lossy
Размер потока : 2,03 Гбайт (3%)
Заголовок : | Original |
Язык : Russian
Default : Да
Forced : Нет

Аудио #2
Идентификатор : 3
Формат : AC-3
Формат/Информация : Audio Coding 3
Идентификатор кодека : A_AC3
Продолжительность : 1 ч. 58 м.
Вид битрейта : Постоянный
Битрейт : 640 Кбит/сек
Каналы : 6 каналов
Расположение каналов : Front: L C R, Side: L R, LFE
Частота : 48,0 КГц
Частота кадров : 31,250 кадров/сек (1536 SPF)
Битовая глубина : 16 бит
Метод сжатия : С потерями
Размер потока : 544 Мбайт (1%)
Заголовок : | Original, AC3 |
Язык : Russian
ServiceKind : Complete Main
Default : Нет
Forced : Нет

Текст
Идентификатор : 4
Формат : UTF-8
Идентификатор кодека : S_TEXT/UTF8
Идентификатор кодека/Информация : UTF-8 Plain Text
Продолжительность : 1 ч. 51 м.
Битрейт : 0 бит/сек
ElementCount : 4
Размер потока : 260 байт (0%)
Заголовок : Forced
Язык : Russian
Default : Да
Forced : Да

Меню
00:00:00.000 : en:Chapter 1
00:11:36.833 : en:Chapter 2
00:16:08.708 : en:Chapter 3
00:28:45.666 : en:Chapter 4
00:41:45.916 : en:Chapter 5
00:54:28.541 : en:Chapter 6
01:07:54.666 : en:Chapter 7
01:20:47.041 : en:Chapter 8
01:33:19.500 : en:Chapter 9
01:45:55.916 : en:Chapter 10
01:48:56.958 : en:Chapter 11
01:53:30.416 : en:Chapter 12
 

Вложения

Ваш e-mail не будет опубликован. Он потребуется для подтверждения Вашего поста.
Оформление текста Нажмите «Ввод», чтобы отправить ответ.