За сегодня опубликовано 3 новых материалов.
Инструкция новичку Путеводитель по форуму Прокси для Telegram Показать подсказки , это бомба!

Скачать Садко (1952) DVDRip-AVC бесплатно через торрент

  • Получай до 480 рублей за каждого приглашенного пользователя!
    представляем Вам очередное расширение партнерской программы, подробности описаны тут -> ссылка
  • 90% материалов доступно к скачиванию после простой регистрации!
    Если же ты хочешь скачивать материалы без требования оставлять отзывы то получи группу "Новичок", 10 способов повышения описаны тут -> ссылка
  • К сожалению количество битых ссылок растет и мы уже не можем их оперативно восстанавливать поэтому просим помощи у каждого нашего пользователя.
    С сегодняшнего дня, за каждую восстановленную ссылку мы заплатим Вам.
    Подробнее тут -> ссылка
  • Перенесем твои заслуги с другого ресурса!
    Мы понимаем как сложно прокачивать аккаунты на форумах, вроде раскачал аккаунт, а тут появляется ресурс в 100 раз круче но тоже с системой прокачки и снова качать аккаунт...
    Предлагаем вам перенести Ваши заслуги на другом подобном ресурсе к нам.
    Подробности описаны тут -> ссылка
  • Вы можете получать по 2.5% с каждой покупки и продажи на маркете! Подробности в теме Партнёрская программа
Если Вы не хотите скачивать, Вы всегда можете посмотреть онлайн, просто нажмите кнопку ниже :

Открыть плеер

Torrent_Bot

Торрент-Бот
Бот форума
4 Окт 2016
125
29
20

Садко



Год выпуска: 1952
Жанр:Сказка, приключения...
Страна: СССР
Студия: Мосфильм
Продолжительность: 01:24:41
Перевод: Не требуется

Режиссер: Александр Птушко
В ролях: Сергей Столяров ст., Алла Ларионова, Нинель Мышкова, Борис Суровцев, Михаил Трояновский, Надир Малишевский, Николай Крючков, Иван Переверзев, Юрий Леонидов (II), Лев Фенин, Михаил Астангов, Лидия Вертинская, Степан Каюков, Ольга Викландт, Сергей Мартинсон, Ольга Чепурова

Описание: После долгих странствий по свету Садко — гусляр и купец — возвращается домой, в Великий Новгород. Может быть, здесь он найдет свое счастье?! Фильм снят по мотивам онежских былин.
В фильме звучит музыка из одноимённой оперы Римского-Корсакова.



Кодек: х264
Качество: DVDRip-AVC
Видео: MPEG-4 AVC, 3000 Кбит/с, [email protected]х568, 25 кадр/с
Аудио: AC3, 6 ch, 448 Кбит/с
Субтитры: Нет
Главы: Есть



Инфо файл
x264 [info]: frame I:737 Avg QP:16.78 size: 79813
x264 [info]: frame P:35462 Avg QP:19.47 size: 33065
x264 [info]: frame B:90817 Avg QP:20.69 size: 7426

Общее
Уникальный идентификатор : 231614412593363492099172608630401152155 (0xAE3F5032E3E019C0AD4742D7CE66349B)
Полное имя : H:СССРСадко 1952_DVDRip-AVC.mkv
Формат : Matroska
Версия формата : Version 2
Размер файла : 2,04 Гбайт
Продолжительность : 1 ч. 24 м.
Общий поток : 3451 Кбит/сек
Дата кодирования : UTC 2018-11-04 19:47:23
Программа кодирования : mkvmerge v5.8.0 ('No Sleep / Pillow') built on Sep 2 2012 15:37:04
Библиотека кодирования : libebml v1.2.3 + libmatroska v1.3.0

Видео
Идентификатор : 1
Формат : AVC
Формат/Информация : Advanced Video Codec
Профиль формата : [email protected]
Настройки формата : CABAC / 15 Ref Frames
Параметр CABAC формата : Да
Параметр RefFrames формата : 15 кадров
Идентификатор кодека : V_MPEG4/ISO/AVC
Продолжительность : 1 ч. 24 м.
Битрейт : 3000 Кбит/сек
Ширина : 718 пикселей
Высота : 568 пикселей
Соотношение сторон : 4:3
Соотношение сторон в оригинале : 4:3
Режим частоты кадров : Постоянный
Частота кадров : 25,000 кадров/сек
Цветовое пространство : YUV
Субдискретизация насыщенности : 4:2:0
Битовая глубина : 8 бит
Тип развёртки : Прогрессивная
Бит/(Пиксели*Кадры) : 0.294
Размер потока : 1,74 Гбайт (85%)
Библиотека кодирования : x264 core 152 r2851kMod ba24899
Настройки программы : cabac=1 / ref=15 / deblock=1:-2:-2 / analyse=0x3:0x133 / me=umh / subme=11 / psy=1 / fade_compensate=0.00 / psy_rd=1.02:0.00 / mixed_ref=1 / me_range=48 / chroma_me=1 / trellis=2 / 8x8dct=1 / cqm=0 / deadzone=21,11 / fast_pskip=0 / chroma_qp_offset=-2 / threads=12 / lookahead_threads=3 / sliced_threads=0 / nr=0 / decimate=0 / interlaced=0 / bluray_compat=0 / constrained_intra=0 / bframes=12 / b_pyramid=2 / b_adapt=2 / b_bias=0 / direct=3 / weightb=1 / open_gop=0 / weightp=2 / keyint=250 / keyint_min=25 / scenecut=40 / intra_refresh=0 / rc_lookahead=40 / rc=2pass / mbtree=0 / bitrate=3000 / ratetol=1.0 / qcomp=0.60 / qpmin=0 / qpmax=39 / qpstep=4 / cplxblur=20.0 / qblur=0.5 / vbv_maxrate=50000 / vbv_bufsize=62500 / nal_hrd=none / filler=0 / ip_ratio=1.25 / pb_ratio=1.30 / aq=1:0.90
Язык : English
Default : Да
Forced : Нет
Цветовой диапазон : Limited
Основные цвета : BT.601 PAL
Характеристики трансфера : BT.470 System B, BT.470 System G
Коэффициенты матрицы : BT.470 System B, BT.470 System G

Аудио
Идентификатор : 2
Формат : AC-3
Формат/Информация : Audio Coding 3
Параметр Endianness формата : Big
Идентификатор кодека : A_AC3
Продолжительность : 1 ч. 24 м.
Вид битрейта : Постоянный
Битрейт : 448 Кбит/сек
Каналы : 6 каналов
Расположение каналов : Front: L C R, Side: L R, LFE
Частота : 48,0 КГц
Частота кадров : 31,250 кадров/сек (1536 SPF)
Битовая глубина : 16 бит
Метод сжатия : С потерями
Задержка видео : 600 мс.
Размер потока : 271 Мбайт (13%)
Язык : Russian
Default : Да
Forced : Нет

Меню
00:00:00.000 : en:Chapter 1
00:05:33.120 : en:Chapter 2
00:08:34.080 : en:Chapter 3
00:16:45.280 : en:Chapter 4
00:21:59.360 : en:Chapter 5
00:25:19.840 : en:Chapter 6
00:29:31.520 : en:Chapter 7
00:32:57.120 : en:Chapter 8
00:35:30.880 : en:Chapter 9
00:38:23.360 : en:Chapter 10
00:43:19.520 : en:Chapter 11
00:51:18.080 : en:Chapter 12
00:54:14.400 : en:Chapter 13
00:59:46.560 : en:Chapter 14
01:09:49.760 : en:Chapter 15
01:21:40.800 : en:Chapter 16
 

Вложения

  • 11,1 KB Просмотры: 0
    Личеров 0
    Сидеров 0
    Файлов 1
    Объем 2 GB
Ваш e-mail не будет опубликован. Он потребуется для подтверждения Вашего поста.
Оформление текста Нажмите «Ввод», чтобы отправить ответ.