За сегодня опубликовано 3 новых материалов.
Инструкция новичку Путеводитель по форуму Прокси для Telegram Показать подсказки , это бомба!

Скачать С Богами: Последние 49 дней / Along with the Gods: The Last 49 Days / Singwa hamkke: Ingwa yeon (2018) HDTVRip-AVC от Batafurai Team и SOUND-GROUP | L2 бесплатно через торрент

  • Получай до 480 рублей за каждого приглашенного пользователя!
    представляем Вам очередное расширение партнерской программы, подробности описаны тут -> ссылка
  • 90% материалов доступно к скачиванию после простой регистрации!
    Если же ты хочешь скачивать материалы без требования оставлять отзывы то получи группу "Новичок", 10 способов повышения описаны тут -> ссылка
  • К сожалению количество битых ссылок растет и мы уже не можем их оперативно восстанавливать поэтому просим помощи у каждого нашего пользователя.
    С сегодняшнего дня, за каждую восстановленную ссылку мы заплатим Вам.
    Подробнее тут -> ссылка
  • Перенесем твои заслуги с другого ресурса!
    Мы понимаем как сложно прокачивать аккаунты на форумах, вроде раскачал аккаунт, а тут появляется ресурс в 100 раз круче но тоже с системой прокачки и снова качать аккаунт...
    Предлагаем вам перенести Ваши заслуги на другом подобном ресурсе к нам.
    Подробности описаны тут -> ссылка
  • Вы можете получать по 2.5% с каждой покупки и продажи на маркете! Подробности в теме Партнёрская программа
Если Вы не хотите скачивать, Вы всегда можете посмотреть онлайн, просто нажмите кнопку ниже :

Открыть плеер

Torrent_Bot

Торрент-Бот
Бот форума
4 Окт 2016
125
29
20

С Богами: Последние 49 дней / Along with the Gods: The Last 49 Days / Singwa hamkke: Ingwa yeon]

Год выпуска: 2018
Страна: Южная Корея
Жанр: фэнтези, драма
Продолжительность: 02:21:33
Перевод: Любительский (двухголосый закадровый)
Cубтитры: pусские
Оригинальная аудиодорожка: Корейский

Режиссер: Ким Ён Хва / Kim Yong Hwa

В ролях: Ха Чон У, Чжу Джи Хун, Ким Хян Ги, Ма Дон Сок, Ким Дон Ук, Ли Чон Джэ, Ким Мён Гон, Чо Хан Чхоль, Хон Ин, Хон Ки Джун, Мин Му Дже, Ли Чжун Хёк, До Кён Су, Кан Син Чхоль, О Хи Джун, Ли Кён Ён, Ким Мин Чон, Им Вон Хи, Чан Кван, Ли Чжун Хёк, Нам Иль У, Йе Су Чжон, Чон Хэ Гюн, Но Кан Мин, Сон Дон Иль, Чон Джи Хун, Чон Ю Ан

Описание: Три ангела смерти, которые сопровождают в другом мире душу смертного, обязанного пройти семь судов на небе, чтобы заслужить прощение и получить право на новую жизнь, получают в свое распоряжение 49-ю по счету душу грешника. В процессе прохождения всех семи кругов очищения, ангелы встречаются с Домовым, который приоткрывает им тайну их прошлых воплощений. Желая узнать тайну своих прошлых жизней, Ангелы отправляются в путешествие по мирам на 1000 лет назад.

Релиз группы:

Доп. информация:Перевод осуществляла команда фансаб-группы "Zipper"

Перевод, Редакция и тайпсет: Aspide, YJ & FQ

Озвучивание: Ворон и Wenlana

Смотреть обязательно с форсированными субтитрами на надписи!
Прежде чем качать видео и комментировать, скачайте сэмпл и послушайте!

Качество видео: HDTVRip-AVC - Сэмпл
Исходник: Along.with.the.Gods_The.Last.49.Days.2017.1080p.FHDRip.H264.AAC-NonDRM
Формат видео: MKV
Видео: 800x336 (2,40:1), 23,976 fps, x264 ~1816 kbps avg, 0.282 bit/pixel
Аудио: 48 kHz, AC3 Dolby Digital, 2/0 (L,R) ch, ~192 kbps (Русский)
Аудио 2: 48 kHz, AC3 Dolby Digital, 2/0 (L,R) ch, ~192 kbps (Корейский)
Формат субтитров: [форсированный(надписи) / полные]softsub (ass)

Скриншоты

отчет MediaInfo
Формат : Matroska
Версия формата : Version 4
Размер файла : 2,18 Гбайт
Продолжительность : 2 ч. 21 м.
Общий поток : 2205 Кбит/сек
Дата кодирования : UTC 2018-10-15 15:11:23
Программа кодирования : mkvmerge v8.2.0 ('World of Adventure') 32bit
Библиотека кодирования : libebml v1.3.1 + libmatroska v1.4.2
Attachments : calibrib.ttf / calibriz.ttf / FRAMDCN_0.TTF / neucha.otf / YanoneKaffeesatz-Bold.otf

Видео
Идентификатор : 1
Формат : AVC
Формат/Информация : Advanced Video Codec
Профиль формата : [email protected]
Настройки формата : CABAC / 10 Ref Frames
Параметр CABAC формата : Да
Параметр RefFrames формата : 10 кадров
Идентификатор кодека : V_MPEG4/ISO/AVC
Продолжительность : 2 ч. 21 м.
Битрейт : 1816 Кбит/сек
Ширина : 800 пикселей
Высота : 336 пикселей
Соотношение сторон : 2,40:1
Режим частоты кадров : Постоянный
Частота кадров : 23,976 (24000/1001) кадра/сек
Цветовое пространство : YUV
Субдискретизация насыщенности : 4:2:0
Битовая глубина : 8 бит
Тип развёртки : Прогрессивная
Бит/(Пиксели*Кадры) : 0.282
Размер потока : 1,80 Гбайт (82%)
Библиотека кодирования : x264 core 148 r2638 7599210
Настройки программы : cabac=1 / ref=10 / deblock=1:-2:-1 / analyse=0x3:0x133 / me=umh / subme=10 / psy=1 / psy_rd=1.00:0.00 / mixed_ref=1 / me_range=24 / chroma_me=1 / trellis=2 / 8x8dct=1 / cqm=0 / deadzone=21,11 / fast_pskip=0 / chroma_qp_offset=-2 / threads=6 / lookahead_threads=1 / sliced_threads=0 / nr=0 / decimate=0 / interlaced=0 / bluray_compat=0 / constrained_intra=0 / bframes=10 / b_pyramid=2 / b_adapt=2 / b_bias=0 / direct=3 / weightb=1 / open_gop=1 / weightp=2 / keyint=240 / keyint_min=23 / scenecut=40 / intra_refresh=0 / rc_lookahead=60 / rc=2pass / mbtree=0 / bitrate=1816 / ratetol=1.0 / qcomp=0.70 / qpmin=10 / qpmax=51 / qpstep=4 / cplxblur=20.0 / qblur=0.5 / vbv_maxrate=62500 / vbv_bufsize=78125 / nal_hrd=none / filler=0 / ip_ratio=1.40 / pb_ratio=1.30 / aq=1:1.00
Язык : English
Default : Да
Forced : Нет
Цветовой диапазон : Limited
Коэффициенты матрицы : BT.709

Аудио #1
Идентификатор : 2
Формат : AC-3
Формат/Информация : Audio Coding 3
Коммерческое название : Dolby Digital
Идентификатор кодека : A_AC3
Продолжительность : 2 ч. 21 м.
Вид битрейта : Постоянный
Битрейт : 192 Кбит/сек
Каналы : 2 канала
Channel layout : L R
Частота : 48,0 КГц
Частота кадров : 31,250 кадров/сек (1536 SPF)
Битовая глубина : 16 бит
Метод сжатия : С потерями
Размер потока : 194 Мбайт (9%)
Заголовок : Ворон и Wenlana
Язык : Russian
Default : Да
Forced : Нет

Аудио #2
Идентификатор : 3
Формат : AC-3
Формат/Информация : Audio Coding 3
Коммерческое название : Dolby Digital
Идентификатор кодека : A_AC3
Продолжительность : 2 ч. 21 м.
Вид битрейта : Постоянный
Битрейт : 192 Кбит/сек
Каналы : 2 канала
Channel layout : L R
Частота : 48,0 КГц
Частота кадров : 31,250 кадров/сек (1536 SPF)
Битовая глубина : 16 бит
Метод сжатия : С потерями
Размер потока : 194 Мбайт (9%)
Заголовок : Original
Язык : Korean
Default : Нет
Forced : Нет

Текст #1
Идентификатор : 4
Формат : ASS
Идентификатор кодека : S_TEXT/ASS
Идентификатор кодека/Информация : Advanced Sub Station Alpha
Продолжительность : 2 ч. 15 м.
Битрейт : 3 бит/сек
ElementCount : 24
Метод сжатия : Без потерь
Размер потока : 3,00 Кбайт (0%)
Заголовок : форсированный(надписи)
Язык : Russian
Default : Да
Forced : Да

Текст #2
Идентификатор : 5
Формат : ASS
Идентификатор кодека : S_TEXT/ASS
Идентификатор кодека/Информация : Advanced Sub Station Alpha
Продолжительность : 2 ч. 17 м.
Битрейт : 121 бит/сек
ElementCount : 1719
Метод сжатия : Без потерь
Размер потока : 122 Кбайт (0%)
Заголовок : Перевод - [Фансаб-группа Zipper]
Язык : Russian
Default : Нет
Forced : Нет

Пример Субтитров
Dialogue: 0,0:02:44.22,0:02:45.05,Default,,0,0,0,,Ёшкин кот!
Dialogue: 0,0:02:53.39,0:02:54.56,Default,,0,0,0,,Здравствуйте.
Dialogue: 0,0:03:17.66,0:03:18.71,Default,,0,0,0,,Ваше Высочество,
Dialogue: 0,0:03:19.02,0:03:22.14,Default,,0,0,0,,эта троица буквально терроризирует Загробный мир.
Dialogue: 0,0:03:22.14,0:03:24.62,Default,,0,0,0,,А он, можно сказать, их дом родной!
Dialogue: 0,0:03:24.62,0:03:27.56,Default,,0,0,0,,Ещё и одержимого притащили, того вообще стоит предать огню!
Dialogue: 0,0:03:28.13,0:03:31.20,Default,,0,0,0,,Позвольте Ким СуХону предстать перед честным судом.
Dialogue: 0,0:03:31.80,0:03:34.49,Default,,0,0,0,,Здесь отчётливо сказано, что он парангон...
Dialogue: 0,0:03:34.49,0:03:35.07,Default,,0,0,0,,Нет!
Dialogue: 0,0:03:35.29,0:03:38.58,Default,,0,0,0,,Его дух одержим местью, он лишь притворяется парангоном.
Dialogue: 0,0:03:38.58,0:03:43.61,Default,,0,0,0,,А если я скажу, что он умер от руки убийцы?
Dialogue: 0,0:03:43.67,0:03:47.41,Default,,0,0,0,,Быть того не может! Он жертва небольшой оплошности.
Dialogue: 0,0:03:47.67,0:03:48.91,Default,,0,0,0,,Случайная жертва!
Dialogue: 0,0:03:49.37,0:03:51.38,Default,,0,0,0,,Хватит грызть ногти, гадёныш, кланяйся королю.
Dialogue: 0,0:03:53.05,0:03:53.85,Default,,0,0,0,,Прояви почтение.
Dialogue: 0,0:03:55.32,0:03:59.67,Default,,0,0,0,,Я расскажу Вам правду о его смерти,
Dialogue: 0,0:04:00.22,0:04:01.63,Default,,0,0,0,,позвольте провести суд.
Dialogue: 0,0:04:10.86,0:04:14.58,Default,,0,0,0,,Размахивание служебным оружием направо и налево,
Dialogue: 0,0:04:15.32,0:04:17.98,Default,,0,0,0,,пособничество одержимому местью,
Dialogue: 0,0:04:17.98,0:04:20.91,Default,,0,0,0,,из-за которого случился переполох в двух мирах -
Dialogue: 0,0:04:21.05,0:04:25.35,Default,,0,0,0,,следует судить не его, а тебя самого, КанРим!
Dialogue: 0,0:04:26.02,0:04:27.65,Default,,0,0,0,,Не забывайся!
Dialogue: 0,0:04:30.02,0:04:32.89,Default,,0,0,0,,Мы примем любое наказание, Ваше Высочество,
Dialogue: 0,0:04:33.03,0:04:36.99,Default,,0,0,0,,но, пожалуйста, разрешите Ким СуХону предстать перед судом.
Dialogue: 0,0:04:37.63,0:04:40.57,Default,,0,0,0,,- Вы должны знать всю правду. N - За что?

Субтитры выложены с разрешения фансаб-группы "Zipper"
 

Вложения

  • 11,8 KB Просмотры: 0
    Личеров 0
    Сидеров 0
    Файлов 1
    Объем 2,2 GB
Ваш e-mail не будет опубликован. Он потребуется для подтверждения Вашего поста.
Оформление текста Нажмите «Ввод», чтобы отправить ответ.