За сегодня опубликовано 15 новых материалов.
Инструкция новичку Путеводитель по форуму Прокси для Telegram Показать подсказки , это бомба!

Скачать Ржевский против Наполеона (2012) BDRip от HQ-ViDEO бесплатно через торрент

  • Получай до 480 рублей за каждого приглашенного пользователя!
    представляем Вам очередное расширение партнерской программы, подробности описаны тут -> ссылка
  • 90% материалов доступно к скачиванию после простой регистрации!
    Если же ты хочешь скачивать материалы без требования оставлять отзывы то получи группу "Новичок", 10 способов повышения описаны тут -> ссылка
  • К сожалению количество битых ссылок растет и мы уже не можем их оперативно восстанавливать поэтому просим помощи у каждого нашего пользователя.
    С сегодняшнего дня, за каждую восстановленную ссылку мы заплатим Вам.
    Подробнее тут -> ссылка
  • Перенесем твои заслуги с другого ресурса!
    Мы понимаем как сложно прокачивать аккаунты на форумах, вроде раскачал аккаунт, а тут появляется ресурс в 100 раз круче но тоже с системой прокачки и снова качать аккаунт...
    Предлагаем вам перенести Ваши заслуги на другом подобном ресурсе к нам.
    Подробности описаны тут -> ссылка
  • Вы можете получать по 2.5% с каждой покупки и продажи на маркете! Подробности в теме Партнёрская программа
Если Вы не хотите скачивать, Вы всегда можете посмотреть онлайн, просто нажмите кнопку ниже :

Открыть плеер

Torrent_Bot

Торрент-Бот
Бот форума
4 Окт 2016
125
32
20
Ржевский против Наполеона / Rzhevskiy protiv Napoleona (2012) BDRip
Релиз от HQ-ViDEO




«В старом добром IIIД»

Информация о фильме:

Оригинальное название: Ржевский против Наполеона
Год выхода: 2012
Жанр:Комедия
Режиссёр:Марюс Вайсберг

В ролях:Павел Деревянко / (Поручик Ржевский), Владимир Зеленский / (Наполеон), Светлана Ходченкова / (Наташа Ростова), Михаил Ефремов / (Лев Толстой), Марат Башаров / (Багратион), Евгений Кошевой / (Левша), Жан-Клод Ван Дамм / Jean-Claude Van Damme, Анна Семенович, Анфиса Чехова, Михаил Галустян, Юрий Гальцев / (Прохор), Алексей Потапенко, Илья Олейников, Татьяна Орлова, Руслана Писанка, Виктор Гусев, Ксения Собчак, Владимир Симонов, Андрей Кайков / (пленный)

Описание:Чтобы развеять скуку, Наполеон Бонапарт затеял мировую войну. Не пропуская ни одной юбки, он оказывается со своей армией у ворот Первопрестольной. Русские полководцы решают внедрить к нему неприступную красавицу, la femme fatal, чтобы отвлечь узурпатора от захватнической деятельности. Только какая настоящая женщина устоит перед обаянием этого великого бабника? Ненастоящая!!! В смысле — переодетый мужчина! И такой мужчина есть — поручик Ржевский…


Страна: Россия , Украина
Продолжительность: 01:23:08
Перевод: Не требуется
Субтитры: Нет

Информация о файле:
Качество: BDRip
Файл: AVI
Кодек:XviD, build 65 codec
Видео: 720 x 304, 2.35:1; 23.976 fps; ~ 2042 kbps; 0.389 bit/pixel
Аудио : 48 kHz, AC3 Dolby Digital, 3/2 (L,C,R,l,r) + LFE ch, ~448.00 kbps avg

Размер:1486 Mb ( 1/3)

Скриншоты для оценки качества (превью - увеличение по клику):





MediaInfo
General
Format : AVI
Format/Info : Audio Video Interleave
File size : 1.45 GiB
Duration : 1h 23mn
Overall bit rate : 2 500 Kbps
Movie name : Rzhevskii.Protiv.Napoleona.2012.RUS.BDRip.XviD.AC3.-HQ-ViDEO
Director : AngelOfTrue
Writing application : VirtualDubMod 1.5.10.3 | www.virtualdub-fr.org || (build 2550/release)
Original source form/Name : Movie
Copyright : HQ-ViDEO
Comment : 12.04.2012

Video
ID : 0
Format : MPEG-4 Visual
Format profile : Advanced [email protected]
Format settings, BVOP : 1
Format settings, QPel : No
Format settings, GMC : No warppoints
Format settings, Matrix : Custom
Codec ID : XVID
Codec ID/Hint : XviD
Duration : 1h 23mn
Bit rate : 2 042 Kbps
Width : 720 pixels
Height : 304 pixels
Display aspect ratio : 2.35:1
Frame rate : 23.976 fps
Color space : YUV
Chroma subsampling : 4:2:0
Bit depth : 8 bits
Scan type : Progressive
Compression mode : Lossy
Bits/(Pixel*Frame) : 0.389
Stream size : 1.19 GiB (82%)
Writing library : XviD 65

Audio
ID : 1
Format : AC-3
Format/Info : Audio Coding 3
Mode extension : CM (complete main)
Codec ID : 2000
Duration : 1h 23mn
Bit rate mode : Constant
Bit rate : 448 Kbps
Channel(s) : 6 channels
Channel positions : Front: L C R, Side: L R, LFE
Sampling rate : 48.0 KHz
Bit depth : 16 bits
Compression mode : Lossy
Stream size : 266 MiB (18%)
Alignment : Split accross interleaves
Interleave, duration : 42 ms (1.00 video frame)
Interleave, preload duration : 500 ms
Знаете ли вы, что...
Фильм снимался в Украине с августа по октябрь 2010 года.

Съемочная группа работала на уникальных объектах: в кадре можно увидеть интерьеры и окрестности Воронцовского, Ливадийского и Александровского дворцов, а также театра «Сузирья», завода «Ленинская кузня» и Дома с химерами - официальной резиденции Президента Украины.

Москву 1812 года «изображала» Киево-Печерская лавра.

В ходе съемок было задействовано 17 различных локаций.

Сцены с Жан-Клодом Ван Даммом снимались ночью.

На проекте работало 12 костюмеров, а костюмы шили в 6 киевских частных дизайнерских ателье (украинские модельеры работали под надзором художника по костюмам Анастасии Нефедовой).

Обувь Наполеона также шилась на заказ в дизайнерских мастерских Киева. Голенища сапог украшены вышивкой, а подошвы оставляют на земле «говорящие» следы - NN.

Один из костюмов Наполеона состоит из 18-ти предметов одежды и аксессуаров, начиная от головного убора и заканчивая чулками и перевязью.

Эполеты экранного Наполеона – подлинное произведение ювелирного искусства: они выполнены из золотых цепей и витого золота.

Для фильма была модернизирована монограмма Наполеона: историческую монограмму преобразили, учитывая современные «тенденции».

Сапоги поручика Ржевского украшают необычные шпоры: вместо классических колесиков на них крепятся черепа со стразами. Всего для героя – в его мужской и женской ипостасях – было на заказ создано 17 пар обуви, в том числе уникальные кроссовки на шпильке.

Высота невероятных меховых головных уборов персонажа Татьяны Орловой достигает 70 см, а это выше, чем у английских королевских гвардейцев. Чтобы носить такую шапку, нужно учиться балансировать.

Для крепостных крестьян было сшито 100 костюмов с принтами на тему гравюр XIX века, изображающих Москву.

На солдатах отступающей французской армии можно заметить забавные детали одежды, выполненные из популярных клетчатых хозяйственных сумок – головные уборы, вещмешки, плащи, шорты и т.д. На них ушло в общей сложности 55 сумок.

В самой масштабной сцене фильма приняло участие около 500 актеров массовых сцен.

В фильм вошли более 10 специально поставленных танцевальных номеров.

Релиз:
Автор рипа:AngelOfTrue
Источник:

ПРИЯТНОГО ПРОСМОТРА!
 

Вложения

  • 15,6 KB Просмотры: 0
    Личеров 0
    Сидеров 0
    Файлов 1
    Объем 1,5 GB
Ваш e-mail не будет опубликован. Он потребуется для подтверждения Вашего поста.
Оформление текста Нажмите «Ввод», чтобы отправить ответ.