За сегодня опубликовано 20 новых материалов.
Инструкция новичку Путеводитель по форуму Прокси для Telegram Показать подсказки , это бомба!

Скачать Рухнувшие небеса / Falling Skies [S05] (2015) WEB-DL 720p | LostFilm бесплатно через торрент

  • Получай до 480 рублей за каждого приглашенного пользователя!
    представляем Вам очередное расширение партнерской программы, подробности описаны тут -> ссылка
  • 90% материалов доступно к скачиванию после простой регистрации!
    Если же ты хочешь скачивать материалы без требования оставлять отзывы то получи группу "Новичок", 10 способов повышения описаны тут -> ссылка
  • К сожалению количество битых ссылок растет и мы уже не можем их оперативно восстанавливать поэтому просим помощи у каждого нашего пользователя.
    С сегодняшнего дня, за каждую восстановленную ссылку мы заплатим Вам.
    Подробнее тут -> ссылка
  • Перенесем твои заслуги с другого ресурса!
    Мы понимаем как сложно прокачивать аккаунты на форумах, вроде раскачал аккаунт, а тут появляется ресурс в 100 раз круче но тоже с системой прокачки и снова качать аккаунт...
    Предлагаем вам перенести Ваши заслуги на другом подобном ресурсе к нам.
    Подробности описаны тут -> ссылка
  • Вы можете получать по 2.5% с каждой покупки и продажи на маркете! Подробности в теме Партнёрская программа
Если Вы не хотите скачивать, Вы всегда можете посмотреть онлайн, просто нажмите кнопку ниже :

Открыть плеер

Torrent_Bot

Торрент-Бот
Бот форума
4 Окт 2016
125
32
20
Информация о фильме
Название: Сошедшие с небес / Рухнувшие небеса
Оригинальное название: Falling Skies
Год выхода: 2015
Жанр: Боевик, Фантастика, Триллер
Режиссер: Грег Биман, Серджо Мимика-Геззан, Адам Кэйн
В ролях: Ноа Уайли, Мун Бладгуд, Дрю Рой, Коннор Джессап, Максим Найт, Сейшелл Гэбриел, Уилл Пэттон, Сара Картер, Колин Каннингэм, Питер Шинкода

О фильме:
Инопланетное вторжение стало для землян полной неожиданностью. Несколько выживших объединяются, чтобы ежедневно бороться за выживание и попытаться наладить связь с такими же как они «счастливчиками» из других городов, и дать отпор захватчикам из космоса.


2bb1c7927b0e8fcbac10c4648ad9795f.gif5466f6e8b5a37efebd7005f83870038d.gif


Страна: США, Канада
Студия: DreamWorks Television, Invasion Productions
Продолжительность: ~ 00:42:00 серия
Перевод: Профессиональный (многоголосый закадровый) LostFilm

Файл
Кодек: AVC/H.264
Качество: WEB-DL 720p
Видео: 1280x720 (1.778), 23.976 fps, ~ 4000 kbps
Звук:
Аудио rus: AC-3, 48 KHz, 6 ch, 384 kbps | LostFilm
Аудио eng: AC-3, 48 KHz, 6 ch, 384 kbps | original
Субтитры: английские

Семпл

Подготовка релиза
Монтаж, работа со звуком LostFilm: Skyns61
Выделенный Voiceover от «LostFilm» был наложен на центр оригинального AC3.
Список серий
01. Найди в себе воина / Find Your Warrior
02. Испытание голодом /Hunger Pains
03. Инкубатор /Hatchlings
04. Поуп пускается во все тяжкие /Pope Breaks Bad
05. Второстепенные /Non-Essential Personnel
06. Отсрочка /Respite
07. У всех свои причины /Everybody Has Their Reasons
08. Шталаг 14-го Вирджинского /Stalag 14th Virginia
09. Воссоединение /Reunion
10. Возрождение /Reborn
Инфо-файл
Общее
Уникальный идентификатор : 248336736551403969433581567208517420388 (0xBAD3EA6CBAAA316199101F6513764564)
Полное имя : G:FilmsFalling.Skies.S05.720p.LostFilmFalling.Skies.S05E01.720p.WEB-DL.LostFilm.DD5.1.mkv
Формат : Matroska
Версия формата : Version 4 / Version 2
Размер файла : 1,34 Гбайт
Продолжительность : 41 м.
Общий поток : 4685 Кбит/сек
Дата кодирования : UTC 2015-07-02 17:24:44
Программа кодирования : mkvmerge v8.1.0 ('Psychedelic Postcard') 64bit
Библиотека кодирования : libebml v1.3.1 + libmatroska v1.4.2
DURATION : 00:41:05.696000000
NUMBER_OF_FRAMES : 77053
NUMBER_OF_BYTES : 118353408
_STATISTICS_WRITING_APP : mkvmerge v8.1.0 ('Psychedelic Postcard') 64bit
_STATISTICS_WRITING_DATE_UTC : 2015-07-02 17:24:44
_STATISTICS_TAGS : BPS DURATION NUMBER_OF_FRAMES NUMBER_OF_BYTES

Видео
Идентификатор : 1
Формат : AVC
Формат/Информация : Advanced Video Codec
Профиль формата : [email protected]
Параметр CABAC формата : Нет
Параметр ReFrames формата : 2 кадра
Идентификатор кодека : V_MPEG4/ISO/AVC
Продолжительность : 41 м.
Битрейт : 3824 Кбит/сек
Ширина : 1280 пикселей
Высота : 720 пикселей
Соотношение сторон : 16:9
Режим частоты кадров : Постоянный
Частота кадров : 23,976 кадра/сек
Цветовое пространство : YUV
Субдискретизация насыщенности : 4:2:0
Битовая глубина : 8 бит
Тип развёртки : Прогрессивная
Бит/(Пиксели*Кадры) : 0.173
Размер потока : 1,10 Гбайт (82%)
Язык : English
Default : Да
Forced : Нет
Основные цвета : BT.709
Характеристики трансфера : BT.709
Коэффициенты матрицы : BT.709
colour_range : Limited

Аудио #1
Идентификатор : 2
Формат : AC-3
Формат/Информация : Audio Coding 3
Расширение режима : CM (complete main)
Параметр Endianness формата : Big
Идентификатор кодека : A_AC3
Продолжительность : 41 м.
Вид битрейта : Постоянный
Битрейт : 384 Кбит/сек
Каналы : 6 каналов
Расположение каналов : Front: L C R, Side: L R, LFE
Частота : 48,0 КГц
Битовая глубина : 16 бит
Метод сжатия : С потерями
Размер потока : 113 Мбайт (8%)
Заголовок : LostFilm 5.1
Язык : Russian
Default : Да
Forced : Нет

Аудио #2
Идентификатор : 3
Формат : AC-3
Формат/Информация : Audio Coding 3
Расширение режима : CM (complete main)
Параметр Endianness формата : Big
Идентификатор кодека : A_AC3
Продолжительность : 41 м.
Вид битрейта : Постоянный
Битрейт : 384 Кбит/сек
Каналы : 6 каналов
Расположение каналов : Front: L C R, Side: L R, LFE
Частота : 48,0 КГц
Битовая глубина : 16 бит
Метод сжатия : С потерями
Размер потока : 113 Мбайт (8%)
Заголовок : original 5.1
Язык : English
Default : Нет
Forced : Нет

Текст
Идентификатор : 4
Формат : UTF-8
Идентификатор кодека : S_TEXT/UTF8
Идентификатор кодека/Информация : UTF-8 Plain Text
Заголовок : CC
Язык : English
Default : Нет
Forced : Нет
Скриншоты
1e87cf748895d4fd3ac6b2399f2e07cf.jpg0c370f71aac777175699b6da47e51ec8.jpg81af47161be5228f30d00870afdcee2f.jpgc1230cdd7d34cdf132e7663451f9da68.jpg

Релиз от: Skyns61
 

Вложения

  • 36,7 KB Просмотры: 0
    Личеров 0
    Сидеров 0
    Файлов 10
    Объем 13,9 GB
Ваш e-mail не будет опубликован. Он потребуется для подтверждения Вашего поста.
Оформление текста Нажмите «Ввод», чтобы отправить ответ.