За сегодня опубликовано 0 новых материалов.
Инструкция новичку Путеводитель по форуму Прокси для Telegram Показать подсказки , это бомба!

Скачать Рухнувшие небеса / Falling Skies [S03] (2013) WEB-DLRip от New-team | LostFilm бесплатно через торрент

  • Получай до 480 рублей за каждого приглашенного пользователя!
    представляем Вам очередное расширение партнерской программы, подробности описаны тут -> ссылка
  • 90% материалов доступно к скачиванию после простой регистрации!
    Если же ты хочешь скачивать материалы без требования оставлять отзывы то получи группу "Новичок", 10 способов повышения описаны тут -> ссылка
  • К сожалению количество битых ссылок растет и мы уже не можем их оперативно восстанавливать поэтому просим помощи у каждого нашего пользователя.
    С сегодняшнего дня, за каждую восстановленную ссылку мы заплатим Вам.
    Подробнее тут -> ссылка
  • Перенесем твои заслуги с другого ресурса!
    Мы понимаем как сложно прокачивать аккаунты на форумах, вроде раскачал аккаунт, а тут появляется ресурс в 100 раз круче но тоже с системой прокачки и снова качать аккаунт...
    Предлагаем вам перенести Ваши заслуги на другом подобном ресурсе к нам.
    Подробности описаны тут -> ссылка
  • Вы можете получать по 2.5% с каждой покупки и продажи на маркете! Подробности в теме Партнёрская программа
Если Вы не хотите скачивать, Вы всегда можете посмотреть онлайн, просто нажмите кнопку ниже :

Открыть плеер

Torrent_Bot

Торрент-Бот
Бот форума
4 Окт 2016
125
32
20
Сошедшие с небес / Рухнувшие Небеса / Falling Skies / Сезон: 3 / Серии: 1-10 (10)



Год выпуска: 2013
Страна: США, Канада
Жанр: фантастика, боевик
Продолжительность: ~ 42 мин/серия
Перевод: Профессиональный многоголосый закадровый | Lostfilm
Субтитры: нет
Оригинальная аудиодорожка: нет

Режиссёр: Грег Биман / Greg Beeman

В ролях: Ноа Уайли, Мун Бладгуд, Дрю Рой, Максим Найт, Сейшелл Гэбриел, Уилл Пэттон, Питер Шинкода, Коннор Джессуп, Сара Картер, Колин Каннингэм и др.

Описание: В результате инопланетного вторжения на Землю один из сыновей профессора истории Тома Мэйсона попадает в плен, а его жена гибнет. Она оказалась одной из миллионов людей, погибших от рук пришельцев. Люди, которым посчастливилось остаться в живых, вступают в партизанские отряды, объединяются для оказания сопротивления захватчикам.


Качество: WEB-DLRip
Формат: AVI
Видео кодек: XviD
Аудио кодек: AC3
Видео: 688x384 (1.79:1), 23.976 fps, XviD build 50 ~1988 kbps avg, 0.31 bit/pixel
Аудио: 48 kHz, AC3 Dolby Digital, 3/2 (L,C,R,l,r) + LFE ch, ~384 kbps

Раздача от: 99e44994b7b9acd8bde877cb8ad2f429.gif

Скриншоты
faf76a29d4ea4ac5256f5c819d2e79d2.png59ff933ecc4dad9e0819c1cd92971108.png76906ef36b1f36c508f3d3c3c286d819.png
MI
D:Мои рипы. Вторая частьFalling.Skies.S03.WEB-DLRip.[YTN]_by_dexter_lexFalling.Skies.S03E01.WEB-DLRip.[YTN]_by_dexter_lex.avi
General
Complete name : D:Мои рипы. Вторая частьFalling.Skies.S03.WEB-DLRip.[YTN]_by_dexter_lexFalling.Skies.S03E01.WEB-DLRip.[YTN]_by_dexter_lex.avi
Format : AVI
Format/Info : Audio Video Interleave
File size : 718 MiB
Duration : 42mn 7s
Overall bit rate : 2 382 Kbps
Writing application : VirtualDubMod 1.5.10.3 | www.virtualdub-fr.org || (build 2550/release)
Writing library : VirtualDubMod build 2550/release
Video #0
ID : 0
Format : MPEG-4 Visual
Format profile : Advanced [email protected]
Format settings, BVOP : 1
Format settings, QPel : No
Format settings, GMC : No warppoints
Format settings, Matrix : Custom
Codec ID : XVID
Codec ID/Hint : XviD
Duration : 42mn 7s
Bit rate : 1 988 Kbps
Width : 688 pixels
Height : 384 pixels
Display aspect ratio : 1.79:1
Frame rate : 23.976 fps
Color space : YUV
Chroma subsampling : 4:2:0
Bit depth : 8 bits
Scan type : Progressive
Compression mode : Lossy
Bits/(Pixel*Frame) : 0.314
Stream size : 599 MiB (83%)
Writing library : XviD 1.2.1 (UTC 2008-12-04)
Audio #1
ID : 1
Format : AC-3
Format/Info : Audio Coding 3
Mode extension : CM (complete main)
Codec ID : 2000
Duration : 42mn 7s
Bit rate mode : Constant
Bit rate : 384 Kbps
Channel(s) : 6 channels
Channel positions : Front: L C R, Side: L R, LFE
Sampling rate : 48.0 KHz
Bit depth : 16 bits
Compression mode : Lossy
Stream size : 116 MiB (16%)
Alignment : Split accross interleaves
Interleave, duration : 42 ms (1.00 video frame)
Interleave, preload duration : 500 ms
Сэмпл Внимание! Раздача ведётся путём добавления новых серий!:
Внимание! Раздача ведётся путём добавления новых серий; при каждом добавлении создаётся новый торрент. Чтобы начать докачку новой серии, пользователям необходимо сделать следующее:
(1) остановить скачивание,
(2) удалить старый торрент у себя из клиента (старые серии удалять не надо),
(3) скачать новый торрент и запустить его у себя в клиенте вместо старого, при этом указать клиенту путь в старую папку куда и должно происходить скачивание новых серий.
Ваш клиент при этом должен произвести хеширование (проверку) старой папки (если не производит сам - помогите ему сделать это), и будет докачивать только те серии которых у вас ещё нет. Старые серии при этом не удаляются, а продолжают раздаваться!
Eсли вы уже удалили старые серии, то предотвратить повторную закачку старых серий можно, отжав галочку в соответствующих местах при запуске нового торрента. По возможности, желательно не удалять старые серии как можно дольше чтобы релизёр не столько продолжал раздавать старые серии, а смог сконцентрироваться на новых.
 

Вложения

  • 20,1 KB Просмотры: 0
    Личеров 0
    Сидеров 0
    Файлов 10
    Объем 7,2 GB
Ваш e-mail не будет опубликован. Он потребуется для подтверждения Вашего поста.
Оформление текста Нажмите «Ввод», чтобы отправить ответ.