За сегодня опубликовано 31 новых материалов.
Инструкция новичку Путеводитель по форуму Прокси для Telegram Показать подсказки , это бомба!

Скачать Ретро сборник "Сделано в С.С.С.Р." Дискография CD4 (2007-2008) APE by гаврила бесплатно через торрент

  • Получай до 480 рублей за каждого приглашенного пользователя!
    представляем Вам очередное расширение партнерской программы, подробности описаны тут -> ссылка
  • 90% материалов доступно к скачиванию после простой регистрации!
    Если же ты хочешь скачивать материалы без требования оставлять отзывы то получи группу "Новичок", 10 способов повышения описаны тут -> ссылка
  • К сожалению количество битых ссылок растет и мы уже не можем их оперативно восстанавливать поэтому просим помощи у каждого нашего пользователя.
    С сегодняшнего дня, за каждую восстановленную ссылку мы заплатим Вам.
    Подробнее тут -> ссылка
  • Перенесем твои заслуги с другого ресурса!
    Мы понимаем как сложно прокачивать аккаунты на форумах, вроде раскачал аккаунт, а тут появляется ресурс в 100 раз круче но тоже с системой прокачки и снова качать аккаунт...
    Предлагаем вам перенести Ваши заслуги на другом подобном ресурсе к нам.
    Подробности описаны тут -> ссылка
  • Вы можете получать по 2.5% с каждой покупки и продажи на маркете! Подробности в теме Партнёрская программа

Torrent_Bot

Торрент-Бот
Бот форума
4 Окт 2016
125
31
20
РЕТРО СБОРНИК "СДЕЛАНО В С.С.С.Р." Дискография CD4-CD5 © APE



Трек лист:
01- Лейтмотив (А.Басилая – рус.текст.) «Иверия» руководитель А.Басилая
02- Неужели все так просто (Г.Цабадзе – И.Шаферан) «Иверия» руководитель А.Басилая
03- О чем ты думаешь (А.Басилая – Р.Рождественский) «Иверия» руководитель А.Басилая
04- Сулико (Грузинская народная песня) «Интеграл» руководитель Б.Алибасов
05- Звезда Востока (Д.Тухманов – Р.Бабаджан, Л.Ошанин) «Ялла» руководитель Ф.Закиров
06- Синеглазая колдунья (Ш.Милорава – Л.Чубабрия, П.Грузинский, перевод Б.Брянского) «Орэра» руководитель Р.Бардзимашвили
07- Тополя (Г.Пономаренко – А.Колесников) «Орэра» руководитель Р.Бардзимашвили
08- Лалеби (Грузинская народная –рус. текст А.Дмоховского) «Орэра» руководитель Р.Бардзимашвили
09- Если Волга разольется (И.Дунаевский – В.Лебедев - Кумач) «Гая» руководитель Т.Мирзоев
10- Дрозды (В.Шаинский – С.Островой) «Гая» руководитель Т.Мирзоев
11- Малиновки заслышав голосок (Э.Ханок – А.Поперечный) «Верасы» руководитель В.Раинчик
12- Андрюша (И.Жак – Г.Гридов) «Верасы» руководитель В.Раинчик
13- Первое свидание (В.Раинчик – Г.Буравский, перевод П.Кошеля) «Верасы» руководитель В.Раинчик
14- Апрель (О.Мильштейн – А.Дементьев) «Оризонт» руководитель О.Мильштейн
15- А любовь жива (А.Бабаджанян – А.Монастырев, О.Писаржевская) «Оризонт» руководитель О.Мильштейн
16- Несе Галя воду (Украинская народная песня, обр. В.Маренича) Трио Маренич
17- Ой, у гаю при Дунаю (Украинская народная песня, обр.А.Маренич) Трио Маренич
18- Вологда (Б.Мокроусов – М.Матусовский) «Песняры» руководитель В.Мулявин
19- Зачарованная моя (И.Лученок – Г.Буравкин) «Песняры» руководитель В.Мулявин

Страна: Россия
Жанр:Retro
Год выпуска: 2007-2008
Формат: APE (image + .cue)
Битрейт аудио: lossless

Exact Audio Copy V0.99 prebeta 3 from 28. July 2007
Отчёт EAC об извлечении, выполненном 27. апреля 2008, 12:31
Various / СДЕЛАНО В СССР Часть 04
Дисковод: Optiarc DVD RW AD-7190A Adapter: 0 ID: 0
Режим чтения : Достоверность
Использование точного потока : Да
Отключение кэша аудио : Да
Использование указателей C2 : Нет
Коррекция смещения при чтении : 48
Способность читать области Lead-in и Lead-out : Нет
Заполнение пропущенных сэмплов тишиной : Да
Удаление блоков с тишиной в начале и конце : Нет
При вычислениях CRC использовались нулевые сэмплы : Да
Интерфейс : Встроенный Win32-интерфейс для Win NT/2000
Выходной формат : Внутренние WAV-операции
Формат сэмплов : 44.100 Гц; 16 бит; стерео
TOC извлечённого CD
Трек | Старт | Длительность | Начальный сектор | Конечный сектор
---------------------------------------------------------------------
1 | 0:00.00 | 4:13.45 | 0 | 19019
2 | 4:13.45 | 2:41.55 | 19020 | 31149
3 | 6:55.25 | 4:04.37 | 31150 | 49486
4 | 10:59.62 | 3:16.68 | 49487 | 64254
5 | 14:16.55 | 3:07.50 | 64255 | 78329
6 | 17:24.30 | 2:55.52 | 78330 | 91506
7 | 20:20.07 | 3:19.58 | 91507 | 106489
8 | 23:39.65 | 1:55.72 | 106490 | 115186
9 | 25:35.62 | 3:34.68 | 115187 | 131304
10 | 29:10.55 | 3:44.60 | 131305 | 148164
11 | 32:55.40 | 2:32.05 | 148165 | 159569
12 | 35:27.45 | 2:46.35 | 159570 | 172054
13 | 38:14.05 | 4:04.62 | 172055 | 190416
14 | 42:18.67 | 3:39.35 | 190417 | 206876
15 | 45:58.27 | 2:46.30 | 206877 | 219356
16 | 48:44.57 | 3:47.23 | 219357 | 236404
17 | 52:32.05 | 4:01.65 | 236405 | 254544
18 | 56:33.70 | 3:39.57 | 254545 | 271026
19 | 60:13.52 | 5:31.70 | 271027 | 295921
Характеристики диапазона извлечения и сообщения об ошибках
Выбранный диапазон
Имя файла L:МУЗЫКАRETRO-001RETRO SBORNIK Sdelano v S.S.S.R. © MelodijaSdelano v S.S.S.R. © 2008 Melodija Vol. 04Various - СДЕЛАНО В СССР Часть 04.wav
Пиковый уровень 100.0 %
Качество диапазона 100.0 %
CRC теста CE6C7880
CRC копии CE6C7880
Копирование... OK
Ошибок не произошло
Конец отчёта
 

Вложения

  • 15,8 KB Просмотры: 0
    Личеров 0
    Сидеров 0
    Файлов 10
    Объем 364,5 MB
Ваш e-mail не будет опубликован. Он потребуется для подтверждения Вашего поста.
Оформление текста Нажмите «Ввод», чтобы отправить ответ.