За сегодня опубликовано 24 новых материалов.
Инструкция новичку Путеводитель по форуму Прокси для Telegram Показать подсказки , это бомба!

Скачать Ретро сборник "Сделано в С.С.С.Р." Дискография CD2 (2007-2008) APE by гаврила бесплатно через торрент

  • Получай до 480 рублей за каждого приглашенного пользователя!
    представляем Вам очередное расширение партнерской программы, подробности описаны тут -> ссылка
  • 90% материалов доступно к скачиванию после простой регистрации!
    Если же ты хочешь скачивать материалы без требования оставлять отзывы то получи группу "Новичок", 10 способов повышения описаны тут -> ссылка
  • К сожалению количество битых ссылок растет и мы уже не можем их оперативно восстанавливать поэтому просим помощи у каждого нашего пользователя.
    С сегодняшнего дня, за каждую восстановленную ссылку мы заплатим Вам.
    Подробнее тут -> ссылка
  • Перенесем твои заслуги с другого ресурса!
    Мы понимаем как сложно прокачивать аккаунты на форумах, вроде раскачал аккаунт, а тут появляется ресурс в 100 раз круче но тоже с системой прокачки и снова качать аккаунт...
    Предлагаем вам перенести Ваши заслуги на другом подобном ресурсе к нам.
    Подробности описаны тут -> ссылка
  • Вы можете получать по 2.5% с каждой покупки и продажи на маркете! Подробности в теме Партнёрская программа

Torrent_Bot

Торрент-Бот
Бот форума
4 Окт 2016
125
32
20
РЕТРО СБОРНИК "СДЕЛАНО В С.С.С.Р." Дискография CD2-CD5 © Мелодия



Трек лист:
01- На горе, на горенке (Русская народная песня) «Ариэль», рук.В.Ярушин
02- Уходишь ты (А.Зацепин/Л.Дербенев) «Ариэль», рук.В.Ярушин
03- Баба-Яга (Т.Ефимов/Ю.Мажаров) «Ариэль», рук.В.Ярушин
04- Лесная колдунья (О.Иванов/А.Поперечный) «Сябры», рук. А.Ермоленко
05- Глухариная заря (О.Иванов/А.Поперечный) «Сябры», рук. А.Ермоленко
06- Дими (Е.Кшеминский/Г.Вальчак, А.Кавецкий) «НоТоЦо» (Польша)
07- Размышления деревенского почтальона (А.Зеленский/Л.Мочульский, р.т. Г.Хила) «Скальды» (Польша)
08- Прелестная виолончелистка (А.Зеленский/В.Миннарский, р.т. Г.Хила) «Скальды» (Польша)
09- Это любовь (А.Рыбников/Р. Тагор, р.т. А.Адолиса) «Ялла»
10- Завируха (Э.Ханок/Г.Буравкин) «Верасы»
11- Кружатся диски (Д.Тухманов/И.Кохановский) «Красные маки» рук А.Хаславский, В.Чуменко
12- Калина (М.Новикас/Ю.Кобрин) «Оризонт», рук. О.Мильштейн
13- Апрель (О.Мильштейн/А.Дементьев) «Оризонт», рук. О.Мильштейн
14- Школьный бал (С.Дьячков/П.Леонидов) «Самоцветы», рук. Ю.Маликов
15- Песня моя песня (О.Иванов/П.Леонидов) «Самоцветы», рук. Ю.Маликов
16- Обманщица (В.Добрынин/М.Пляцковский) «Поющие сердца», рук. В.Векштейн
17- Записка (С.Дьячков/О.Гаджикасимов) «Синяя птица», рук. М. и Р.Болотные

Страна: Россия
Жанр:Retro
Год выпуска: 2007-2008
Формат: APE (image + .cue)
Битрейт аудио: lossless

Exact Audio Copy V0.99 prebeta 3 from 28. July 2007
Отчёт EAC об извлечении, выполненном 4. апреля 2008, 17:27
Various / СДЕЛАНО В СССР Часть 02
Дисковод: Optiarc DVD RW AD-7190A Adapter: 0 ID: 0
Режим чтения : Достоверность
Использование точного потока : Да
Отключение кэша аудио : Да
Использование указателей C2 : Нет
Коррекция смещения при чтении : 48
Способность читать области Lead-in и Lead-out : Нет
Заполнение пропущенных сэмплов тишиной : Да
Удаление блоков с тишиной в начале и конце : Нет
При вычислениях CRC использовались нулевые сэмплы : Нет
Интерфейс : Встроенный Win32-интерфейс для Win NT/2000
Выходной формат : Внутренние WAV-операции
Формат сэмплов : 44.100 Гц; 16 бит; стерео
TOC извлечённого CD
Трек | Старт | Длительность | Начальный сектор | Конечный сектор
---------------------------------------------------------------------
1 | 0:00.00 | 5:26.52 | 0 | 24501
2 | 5:26.52 | 4:49.33 | 24502 | 46209
3 | 10:16.10 | 2:42.33 | 46210 | 58392
4 | 12:58.43 | 6:05.70 | 58393 | 85837
5 | 19:04.38 | 4:35.52 | 85838 | 106514
6 | 23:40.15 | 3:02.64 | 106515 | 120228
7 | 26:43.04 | 3:01.46 | 120229 | 133849
8 | 29:44.50 | 3:27.63 | 133850 | 149437
9 | 33:12.38 | 6:01.54 | 149438 | 176566
10 | 39:14.17 | 4:16.20 | 176567 | 195786
11 | 43:30.37 | 6:30.46 | 195787 | 225082
12 | 50:01.08 | 3:04.38 | 225083 | 238920
13 | 53:05.46 | 3:40.44 | 238921 | 255464
14 | 56:46.15 | 3:46.34 | 255465 | 272448
15 | 60:32.49 | 3:05.35 | 272449 | 286358
16 | 63:38.09 | 3:59.61 | 286359 | 304344
17 | 67:37.70 | 4:34.09 | 304345 | 324903
Характеристики диапазона извлечения и сообщения об ошибках
Выбранный диапазон
Имя файла L:МУЗЫКАRETRO-001RETRO SBORNIK Sdelano v S.S.S.R. © MelodijaSdelano v S.S.S.R. © 2007 Melodija Vol. 02Various - СДЕЛАНО В СССР Часть 02.wav
Пиковый уровень 98.1 %
Качество диапазона 100.0 %
CRC теста 17166B40
CRC копии 17166B40
Копирование... OK
Ошибок не произошло
Конец отчёта
 

Вложения

  • 17,9 KB Просмотры: 0
    Личеров 0
    Сидеров 0
    Файлов 8
    Объем 417,6 MB
Ваш e-mail не будет опубликован. Он потребуется для подтверждения Вашего поста.
Оформление текста Нажмите «Ввод», чтобы отправить ответ.