За сегодня опубликовано 3 новых материалов.
Инструкция новичку Путеводитель по форуму Прокси для Telegram Показать подсказки , это бомба!

Скачать Репродукция / Replicas (2018) BDRip-HEVC 1080p от HANNIBAL | iTunes бесплатно через торрент

  • Получай до 480 рублей за каждого приглашенного пользователя!
    представляем Вам очередное расширение партнерской программы, подробности описаны тут -> ссылка
  • 90% материалов доступно к скачиванию после простой регистрации!
    Если же ты хочешь скачивать материалы без требования оставлять отзывы то получи группу "Новичок", 10 способов повышения описаны тут -> ссылка
  • К сожалению количество битых ссылок растет и мы уже не можем их оперативно восстанавливать поэтому просим помощи у каждого нашего пользователя.
    С сегодняшнего дня, за каждую восстановленную ссылку мы заплатим Вам.
    Подробнее тут -> ссылка
  • Перенесем твои заслуги с другого ресурса!
    Мы понимаем как сложно прокачивать аккаунты на форумах, вроде раскачал аккаунт, а тут появляется ресурс в 100 раз круче но тоже с системой прокачки и снова качать аккаунт...
    Предлагаем вам перенести Ваши заслуги на другом подобном ресурсе к нам.
    Подробности описаны тут -> ссылка
  • Вы можете получать по 2.5% с каждой покупки и продажи на маркете! Подробности в теме Партнёрская программа
Если Вы не хотите скачивать, Вы всегда можете посмотреть онлайн, просто нажмите кнопку ниже :

Открыть плеер

Torrent_Bot

Торрент-Бот
Бот форума
4 Окт 2016
125
29
20


Информация о фильме
Название: Репродукция
Оригинальное название: Replicas
Год выхода: 2018
Жанр: Фантастика, триллер, мистика, криминал
Режиссер: Джеффри Начманофф
В ролях: Киану Ривз, Элис Ив, Эмили Элин Линд, Томас Миддлдитч, Джон Ортис, Эмджей Энтони, Няша Хатенди, Ария Лайрик Либу, Эмбер Таунсенд, Эмбер Ривера, Джеффри Хольсман, Саншайн Логроньо, Иван Дж. Торрес Ласанта, Омар Крус Сото

О фильме:
Талантливый ученый-биолог теряет в автокатастрофе свою семью. Одержимый желанием вернуть к жизни жену и детей, он преступает законы научной этики и самой природы. Но когда информация о репродукции человека доходит до властей, на ученого и воскрешенных им близких начинается охота.



Страна: США
Студия: Company Films, Di Bonaventura Pictures, Riverstone Pictures
Продолжительность: 01:47:59
Перевод: Дублированный (iTunes)

Файл
Качество: BDRip-HEVC 1080p
Видео: HEVC/x.265, 1920x804, ~4924 kb/s
Аудио 1: AC3, 6 ch, 384 Kbps Дублированный (iTunes)
Аудио 2: AC3, 6 ch, 448 Kbps (Оригинал)




Mediainfo
x265 info: frame I: 1565, Avg QP:15.92 kb/s: 21413.98
x265 info: frame P: 29123, Avg QP:17.32 kb/s: 11918.74
x265 info: frame B: 124665, Avg QP:21.46 kb/s: 3081.89
x265 info: Weighted P-Frames: Y:6.1% UV:4.7%
x265 info: Weighted B-Frames: Y:4.7% UV:3.5%
x265 info: consecutive B-frames: 9.7% 4.4% 9.4% 23.3% 8.9% 17.0% 7.6% 10.7% 9.0%


General
Unique ID : 315274019540952557500113972188853037439 (0xED2F914729F45A8240CF3D71404BE97F)
Complete name : H:HEVC-CLUBReplicas (2018) BDRip 1080p [HEVC] 10bit.mkv
Format : Matroska
Format version : Version 4
File size : 4.34 GiB
Duration : 1 h 47 min
Overall bit rate : 5 758 kb/s
Movie name : Replicas
Encoded date : UTC 2019-04-15 18:09:06
Writing application : mkvmerge v25.0.0 ('Prog Noir') 64-bit
Writing library : libebml v1.3.6 + libmatroska v1.4.9 / Lavf57.71.100
Attachments : poster.jpg
ACTORS : Keanu Reeves, Alice Eve, Thomas Middleditch, John Ortiz
COUNTRY : UK, China, Puerto Rico, USA
DATE : 2018
DIRECTOR : Jeffrey Nachmanoff
ENCODING_INFO : MPEGTS > MKV / H264 > X265 CRF 17.5 Very Slow
GENRE : Drama, Sci-Fi, Thriller
HD_VIDEO : 1
IMDB_RATING : 5.4
ITUNEXTC : mpaa|PG-13|300|
Language : und
MEDIA_TYPE : 9
WRITER : Chad St. John (screenplay by), Stephen Hamel (story by)

Video
ID : 1
Format : HEVC
Format/Info : High Efficiency Video Coding
Format profile : Main [email protected]@High
Codec ID : V_MPEGH/ISO/HEVC
Duration : 1 h 47 min
Bit rate : 4 924 kb/s
Width : 1 920 pixels
Height : 804 pixels
Display aspect ratio : 2.40:1
Frame rate mode : Constant
Frame rate : 23.976 (24000/1001) FPS
Color space : YUV
Chroma subsampling : 4:2:0
Bit depth : 10 bits
Bits/(Pixel*Frame) : 0.133
Stream size : 3.71 GiB (86%)
Writing library : x265 2.9+9-f74003e88622:[Windows][GCC 8.2.0][64 bit] 10bit
Encoding settings : cpuid=1111039 / frame-threads=13 / numa-pools=12 / wpp / no-pmode / no-pme / no-psnr / no-ssim / log-level=3 / input-csp=1 / input-res=1920x804 / interlace=0 / total-frames=0 / level-idc=41 / high-tier=1 / uhd-bd=0 / ref=5 / allow-non-conformance / no-repeat-headers / annexb / no-aud / no-hrd / info / hash=0 / no-temporal-layers / open-gop / min-keyint=24 / keyint=240 / gop-lookahead=0 / bframes=8 / b-adapt=2 / b-pyramid / bframe-bias=0 / rc-lookahead=40 / lookahead-slices=4 / scenecut=40 / radl=0 / no-intra-refresh / ctu=64 / min-cu-size=8 / rect / no-amp / max-tu-size=32 / tu-inter-depth=3 / tu-intra-depth=3 / limit-tu=0 / rdoq-level=2 / dynamic-rd=0.00 / no-ssim-rd / signhide / no-tskip / nr-intra=0 / nr-inter=0 / no-constrained-intra / no-strong-intra-smoothing / max-merge=3 / limit-refs=3 / no-limit-modes / me=3 / subme=7 / merange=57 / temporal-mvp / weightp / weightb / no-analyze-src-pics / deblock=-4:-4 / no-sao / no-sao-non-deblock / rd=6 / no-early-skip / rskip / no-fast-intra / no-tskip-fast / no-cu-lossless / no-b-intra / no-splitrd-skip / rdpenalty=0 / psy-rd=2.00 / psy-rdoq=1.00 / no-rd-refine / no-lossless / cbqpoffs=0 / crqpoffs=0 / rc=crf / crf=17.5 / qcomp=0.60 / qpstep=4 / stats-write=0 / stats-read=0 / vbv-maxrate=50000 / vbv-bufsize=50000 / vbv-init=0.9 / crf-max=0.0 / crf-min=0.0 / ipratio=1.40 / pbratio=1.30 / aq-mode=1 / aq-strength=1.00 / cutree / zone-count=0 / no-strict-cbr / qg-size=32 / no-rc-grain / qpmax=69 / qpmin=0 / no-const-vbv / sar=1 / overscan=0 / videoformat=5 / range=0 / colorprim=1 / transfer=1 / colormatrix=1 / chromaloc=0 / display-window=0 / max-cll=0,0 / min-luma=0 / max-luma=1023 / log2-max-poc-lsb=8 / vui-timing-info / vui-hrd-info / slices=1 / no-opt-qp-pps / no-opt-ref-list-length-pps / no-multi-pass-opt-rps / scenecut-bias=0.05 / no-opt-cu-delta-qp / no-aq-motion / no-hdr / no-hdr-opt / no-dhdr10-opt / no-idr-recovery-sei / analysis-reuse-level=5 / scale-factor=0 / refine-intra=0 / refine-inter=0 / refine-mv=0 / no-limit-sao / ctu-info=0 / no-lowpass-dct / refine-mv-type=0 / copy-pic=1 / max-ausize-factor=1.0 / no-dynamic-refine / no-single-sei
Default : Yes
Forced : No
Color range : Limited
Color primaries : BT.709
Transfer characteristics : BT.709
Matrix coefficients : BT.709

Audio #1
ID : 2
Format : AC-3
Format/Info : Audio Coding 3
Commercial name : Dolby Digital
Codec ID : A_AC3
Duration : 1 h 47 min
Bit rate mode : Constant
Bit rate : 384 kb/s
Channel(s) : 6 channels
Channel layout : L R C LFE Ls Rs
Sampling rate : 48.0 kHz
Frame rate : 31.250 FPS (1536 SPF)
Bit depth : 16 bits
Compression mode : Lossy
Stream size : 296 MiB (7%)
Title : Dub | DD 5.1 @ 384 kbps - iTunes
Language : Russian
Service kind : Complete Main
Default : Yes
Forced : No

Audio #2
ID : 3
Format : AC-3
Format/Info : Audio Coding 3
Commercial name : Dolby Digital
Codec ID : A_AC3
Duration : 1 h 47 min
Bit rate mode : Constant
Bit rate : 448 kb/s
Channel(s) : 6 channels
Channel layout : L R C LFE Ls Rs
Sampling rate : 48.0 kHz
Frame rate : 31.250 FPS (1536 SPF)
Bit depth : 16 bits
Compression mode : Lossy
Stream size : 346 MiB (8%)
Title : Original | DD 5.1 @ 448 kbps
Language : English
Service kind : Complete Main
Default : No
Forced : No

Menu
00:00:00.000 : :Глава 1
00:07:47.258 : :Глава 2
00:14:45.968 : :Глава 3
00:21:56.023 : :Глава 4
00:30:07.680 : :Глава 5
00:40:47.027 : :Глава 6
00:51:14.154 : :Глава 7
00:59:14.217 : :Глава 8
01:08:39.323 : :Глава 9
01:19:31.433 : :Глава 10
01:28:32.140 : :Глава 11
01:36:19.607 : :Глава 12
01:44:18.835 : :Глава 13
Скриншоты

Релиз от: HANNIBAL
 

Вложения

  • 11,8 KB Просмотры: 0
    Личеров 0
    Сидеров 0
    Файлов 1
    Объем 4,3 GB
Ваш e-mail не будет опубликован. Он потребуется для подтверждения Вашего поста.
Оформление текста Нажмите «Ввод», чтобы отправить ответ.