За сегодня опубликовано 11 новых материалов.
Инструкция новичку Путеводитель по форуму Прокси для Telegram Показать подсказки , это бомба!

Скачать Путевка в жизнь (2014) WEB-DL 1080p от KORSAR | iTunes бесплатно через торрент

  • Получай до 480 рублей за каждого приглашенного пользователя!
    представляем Вам очередное расширение партнерской программы, подробности описаны тут -> ссылка
  • 90% материалов доступно к скачиванию после простой регистрации!
    Если же ты хочешь скачивать материалы без требования оставлять отзывы то получи группу "Новичок", 10 способов повышения описаны тут -> ссылка
  • К сожалению количество битых ссылок растет и мы уже не можем их оперативно восстанавливать поэтому просим помощи у каждого нашего пользователя.
    С сегодняшнего дня, за каждую восстановленную ссылку мы заплатим Вам.
    Подробнее тут -> ссылка
  • Перенесем твои заслуги с другого ресурса!
    Мы понимаем как сложно прокачивать аккаунты на форумах, вроде раскачал аккаунт, а тут появляется ресурс в 100 раз круче но тоже с системой прокачки и снова качать аккаунт...
    Предлагаем вам перенести Ваши заслуги на другом подобном ресурсе к нам.
    Подробности описаны тут -> ссылка
  • Вы можете получать по 2.5% с каждой покупки и продажи на маркете! Подробности в теме Партнёрская программа
Если Вы не хотите скачивать, Вы всегда можете посмотреть онлайн, просто нажмите кнопку ниже :

Открыть плеер

Torrent_Bot

Торрент-Бот
Бот форума
4 Окт 2016
125
32
20



Информация о фильме
Название: Путевка в жизнь
Год выпуска: 2014
Жанр: Приключения
Режиссер: Олег Галин
В ролях: Илья Плисов, Сергей Гармаш, Александр Лобанов, Клавдия Коршунова, Александра Шевченко, Дмитрий Ермак, Егор Баринов, Иван Косичкин, Олег Алмазов, Юлия Голубева, Юрий Лопарёв, Лёля Баранова, Андрей Пынзару, Яков Тихомиров, Денис Лапега, Тимур Подшибякин

Описание: В центре сюжета – непростая история оставшегося без родителей мальчика Ромки Бегункова. Его берет к себе приемная семья Ряхиных, но жизнь в их доме оказывается настолько невыносимой и жестокой, что, спасая себя и своего единственного верного друга - собачку Плута, мальчик решается на побег. Сбежав из дома, Ромка случайно попадает в воинскую часть в самый разгар боевых учений. Армейские будни и строгий распорядок дня станут для Ромки настоящим испытанием, однако знакомство с дочерью командира полка Светой пробуждает в мальчике незнакомые чувства. Тем временем бывший следователь Пушкарев путем шантажа заставляет приемного отца Ромки пойти на преступление. Злоумышленники намерены украсть электронную мину из той самой воинской части, которая приютила Ромку.



Выпущено: Россия, Студия Стелла
Продолжительность: 01:40:28
Перевод: Не требуется

Файл
Качество: WEB-DL 1080p
Видео: MPEG-4 AVC, 1920x804, 24 fps, 4510 Кбит/с
Аудио: AC3, 6 ch, 384 Кбит/с
Субтитры: Нет

Релиз от:

Скриншоты

MediaInfo
Общее
Уникальный идентификатор : 230720214647017567409627932735883105154 (0xAD9318D6115604ECB29A2FCD1D4AD382)
Полное имя : Путевка в жизнь_2014-WEB-DL 1080p_KORSAR.mkv
Формат : Matroska
Версия формата : Version 2
Размер файла : 3,50 Гбайт
Продолжительность : 1 ч. 40 м.
Общий поток : 4994 Кбит/сек
Дата кодирования : UTC 2019-02-13 10:37:37
Программа кодирования : mkvmerge v7.8.0 ('River Man') 32bit built on Mar 27 2015 16:18:02
Библиотека кодирования : libebml v1.3.1 + libmatroska v1.4.2

Видео
Идентификатор : 1
Формат : AVC
Формат/Информация : Advanced Video Codec
Профиль формата : [email protected]
Параметр CABAC формата : Да
Параметр ReFrames формата : 5 кадров
Идентификатор кодека : V_MPEG4/ISO/AVC
Продолжительность : 1 ч. 40 м.
Битрейт : 4510 Кбит/сек
Ширина : 1920 пикселей
Высота : 804 пикселя
Соотношение сторон : 2,40:1
Режим частоты кадров : Постоянный
Частота кадров : 24,000 кадра/сек
Цветовое пространство : YUV
Субдискретизация насыщенности : 4:2:0
Битовая глубина : 8 бит
Тип развёртки : Прогрессивная
Бит/(Пиксели*Кадры) : 0.122
Размер потока : 3,17 Гбайт (90%)
Заголовок : Путевка в жизнь 2014
Язык : Russian
Default : Да
Forced : Нет
Основные цвета : BT.709
Характеристики трансфера : BT.709
Коэффициенты матрицы : BT.709

Аудио
Идентификатор : 2
Формат : AC-3
Формат/Информация : Audio Coding 3
Расширение режима : CM
Параметр Endianness формата : Big
Идентификатор кодека : A_AC3
Продолжительность : 1 ч. 40 м.
Вид битрейта : Постоянный
Битрейт : 384 Кбит/сек
Каналы : 6 каналов
Расположение каналов : Front: L C R, Side: L R, LFE
Частота : 48,0 КГц
Битовая глубина : 16 бит
Метод сжатия : С потерями
Размер потока : 276 Мбайт (8%)
Заголовок : iTunes
Язык : Russian
Default : Да
Forced : Нет
 

Вложения

  • 18,5 KB Просмотры: 0
    Личеров 0
    Сидеров 0
    Файлов 1
    Объем 3,5 GB
Ваш e-mail не будет опубликован. Он потребуется для подтверждения Вашего поста.
Оформление текста Нажмите «Ввод», чтобы отправить ответ.