За сегодня опубликовано 10 новых материалов.
Инструкция новичку Путеводитель по форуму Прокси для Telegram Показать подсказки , это бомба!

Скачать Прогулка по эшафоту (1992) DVDRip-AVC от KORSAR бесплатно через торрент

  • Получай до 480 рублей за каждого приглашенного пользователя!
    представляем Вам очередное расширение партнерской программы, подробности описаны тут -> ссылка
  • 90% материалов доступно к скачиванию после простой регистрации!
    Если же ты хочешь скачивать материалы без требования оставлять отзывы то получи группу "Новичок", 10 способов повышения описаны тут -> ссылка
  • К сожалению количество битых ссылок растет и мы уже не можем их оперативно восстанавливать поэтому просим помощи у каждого нашего пользователя.
    С сегодняшнего дня, за каждую восстановленную ссылку мы заплатим Вам.
    Подробнее тут -> ссылка
  • Перенесем твои заслуги с другого ресурса!
    Мы понимаем как сложно прокачивать аккаунты на форумах, вроде раскачал аккаунт, а тут появляется ресурс в 100 раз круче но тоже с системой прокачки и снова качать аккаунт...
    Предлагаем вам перенести Ваши заслуги на другом подобном ресурсе к нам.
    Подробности описаны тут -> ссылка
  • Вы можете получать по 2.5% с каждой покупки и продажи на маркете! Подробности в теме Партнёрская программа
Если Вы не хотите скачивать, Вы всегда можете посмотреть онлайн, просто нажмите кнопку ниже :

Открыть плеер

Torrent_Bot

Торрент-Бот
Бот форума
4 Окт 2016
125
32
20





Прогулка по эшафоту
Год выпуска: 1992
Жанр: Фэнтези, драма
Продолжительность: 01:24:20
Режиссер: Исаак Фридберг
В ролях: Ольга Дроздова, Дмитрий Певцов, Борис Плотников, Борис Артемьев, Дмитрий Канторович, Денис Корякин, Алексей Кожевников, Михаил Ремизов

Описание: Двое симпатичных влюбленных забрели на ночлег в скромную хижину, затерявшуюся в глухом лесном уголке. Домишко стоял на берегу чудесного озера, живописный вид которого омрачался только топором, воткнутым в плаху на деревянном помосте. Утром они проснулись и увидели павлина, а внутренности хижины возле эшафота превратились в сказочные, роскошные чертоги…



Релиз от:

Качество: DVDRip-AVC
Видео: MPEG-4 AVC, [email protected], 25 fps, 3771 Кбит/с
Аудио: AC3, 6 ch, 448 Кбит/с
Язык: Русский



Инфо файл
x264 [info]: frame I:667 Avg QP:18.09 size: 75781
x264 [info]: frame P:30125 Avg QP:19.71 size: 43991
x264 [info]: frame B:95715 Avg QP:22.13 size: 11104
x264 [info]: consecutive B-frames: 3.3% 3.2% 7.9% 21.5% 23.9% 37.4% 2.1% 0.3% 0.2% 0.1%
Общее
Уникальный идентификатор : 191636566037366191775179490708007641097 (0x902BDC2F52AB4E508E5AD09522636009)
Полное имя : D:Прогулка по эшафоту_1992-DVDRip-AVC_KORSAR.mkv
Формат : Matroska
Версия формата : Version 2
Размер файла : 2,54 Гбайт
Продолжительность : 1 ч. 24 м.
Общий поток : 4305 Кбит/сек
Название фильма : Прогулка по эшафоту_1992-DVDRip-AVC_KORSAR
Дата кодирования : UTC 2019-04-15 07:25:27
Программа кодирования : mkvmerge v5.8.0 ('No Sleep / Pillow') built on Sep 2 2012 15:37:04
Библиотека кодирования : libebml v1.2.3 + libmatroska v1.3.0

Видео
Идентификатор : 1
Формат : AVC
Формат/Информация : Advanced Video Codec
Профиль формата : [email protected]
Параметр CABAC формата : Да
Параметр ReFrames формата : 16 кадров
Идентификатор кодека : V_MPEG4/ISO/AVC
Продолжительность : 1 ч. 24 м.
Битрейт : 3771 Кбит/сек
Ширина : 694 пикселя
Высота : 574 пикселя
Соотношение сторон : 4:3
Режим частоты кадров : Постоянный
Частота кадров : 25,000 кадров/сек
Цветовое пространство : YUV
Субдискретизация насыщенности : 4:2:0
Битовая глубина : 8 бит
Тип развёртки : Прогрессивная
Бит/(Пиксели*Кадры) : 0.379
Размер потока : 2,22 Гбайт (88%)
Библиотека кодирования : x264 core 152 r2851kMod ba24899
Настройки программы : cabac=1 / ref=16 / deblock=1:-2:-1 / analyse=0x3:0x133 / me=umh / subme=10 / psy=1 / fade_compensate=0.00 / psy_rd=1.05:0.10 / mixed_ref=1 / me_range=40 / chroma_me=1 / trellis=2 / 8x8dct=1 / cqm=0 / deadzone=21,11 / fast_pskip=1 / chroma_qp_offset=-3 / threads=12 / lookahead_threads=2 / sliced_threads=0 / nr=0 / decimate=1 / interlaced=0 / bluray_compat=0 / constrained_intra=0 / bframes=9 / b_pyramid=2 / b_adapt=2 / b_bias=0 / direct=1 / weightb=1 / open_gop=0 / weightp=2 / keyint=250 / keyint_min=25 / scenecut=40 / intra_refresh=0 / rc=crf / mbtree=0 / crf=17.3000 / qcomp=0.63 / qpmin=0 / qpmax=30 / qpstep=4 / ip_ratio=1.40 / pb_ratio=1.30 / aq=1:0.80
Язык : English
Default : Да
Forced : Нет
Основные цвета : BT.601 PAL
Характеристики трансфера : BT.470 System B, BT.470 System G
Коэффициенты матрицы : BT.601

Аудио
Идентификатор : 2
Формат : AC-3
Формат/Информация : Audio Coding 3
Расширение режима : CM (complete main)
Параметр Endianness формата : Big
Идентификатор кодека : A_AC3
Продолжительность : 1 ч. 24 м.
Вид битрейта : Постоянный
Битрейт : 448 Кбит/сек
Каналы : 6 каналов
Расположение каналов : Front: L C R, Side: L R, LFE
Частота : 48,0 КГц
Битовая глубина : 16 бит
Метод сжатия : С потерями
Размер потока : 270 Мбайт (10%)
Язык : Russian
Default : Да
Forced : Нет

Меню
00:00:00.000 : en:Chapter 1
00:08:45.280 : en:Chapter 2
00:14:31.360 : en:Chapter 3
00:25:19.000 : en:Chapter 4
00:29:06.400 : en:Chapter 5
00:35:45.280 : en:Chapter 6
00:40:07.040 : en:Chapter 7
00:49:51.200 : en:Chapter 8
00:57:29.600 : en:Chapter 9
01:04:44.040 : en:Chapter 10
01:11:52.720 : en:Chapter 11
01:16:21.760 : en:Chapter 12
 

Вложения

  • 13,6 KB Просмотры: 0
    Личеров 0
    Сидеров 0
    Файлов 1
    Объем 2,5 GB
Ваш e-mail не будет опубликован. Он потребуется для подтверждения Вашего поста.
Оформление текста Нажмите «Ввод», чтобы отправить ответ.