За сегодня опубликовано 13 новых материалов.
Инструкция новичку Путеводитель по форуму Прокси для Telegram Показать подсказки , это бомба!

Скачать Пожиратели плоти / Zombi 2 (1979) BDRip 720p от KORSAR | A | 4K Remastered бесплатно через торрент

  • Получай до 480 рублей за каждого приглашенного пользователя!
    представляем Вам очередное расширение партнерской программы, подробности описаны тут -> ссылка
  • 90% материалов доступно к скачиванию после простой регистрации!
    Если же ты хочешь скачивать материалы без требования оставлять отзывы то получи группу "Новичок", 10 способов повышения описаны тут -> ссылка
  • К сожалению количество битых ссылок растет и мы уже не можем их оперативно восстанавливать поэтому просим помощи у каждого нашего пользователя.
    С сегодняшнего дня, за каждую восстановленную ссылку мы заплатим Вам.
    Подробнее тут -> ссылка
  • Перенесем твои заслуги с другого ресурса!
    Мы понимаем как сложно прокачивать аккаунты на форумах, вроде раскачал аккаунт, а тут появляется ресурс в 100 раз круче но тоже с системой прокачки и снова качать аккаунт...
    Предлагаем вам перенести Ваши заслуги на другом подобном ресурсе к нам.
    Подробности описаны тут -> ссылка
  • Вы можете получать по 2.5% с каждой покупки и продажи на маркете! Подробности в теме Партнёрская программа
Если Вы не хотите скачивать, Вы всегда можете посмотреть онлайн, просто нажмите кнопку ниже :

Открыть плеер

Torrent_Bot

Торрент-Бот
Бот форума
4 Окт 2016
125
32
20



Информация о фильме
Название: Пожиратели плоти
Оригинальное название: Zombi 2
Год выпуска: 1979
Выпущено: Италия, Variety Film Production
Жанр:Ужасы, фантастика
Режиссер: Лучио Фульчи
В ролях: Тиса Фэрроу, Йен Маккаллок, Ричард Джонсон, Аль Кливер, Даккар, Стефания Д`Амарио, Ольга Карлатос, Уго Болонья

О фильме: В бухту Нью-Йорка вплывает неуправляемая яхта, на борту которой нет ни души. Для проверки туда поднимаются двое полицейских, один из которых становится жертвой огромных размеров зомби, а второй расстреливает всю обойму пистолета в этого самого зомби, после чего тело падает в воду. Этим необычным делом, разумеется, заинтересовалась пресса в лице ушлого репортера Питера Веста, который проникает ночью на яхту и сталкивается там с дочерью ее владельца, Анной Баулс. Анна рассказывает Питеру о том, что это яхта ее отца, ученого, который несколько месяцев назад отправился на тропический остров, и о котором она не слышала уже больше месяца. Решив расследовать все обстоятельства на месте, любознательная парочка отправляется на остров, на котором эпидемия зомби как раз в самом разгаре…

Продолжительность: 01:31:16
Перевод: Авторский
Субтитры: Русские, английские
Навигация по главам: Есть

Файл
Качество: BDRip 720p
Видео: MPEG-4 AVC, 8468 Кбит/сек, 1272x530, 23,976 кадра/сек
Аудио #1: AC3, 6 ch, 448 Кбит/сек | Русский, авторский (одноголосый закадровый) Андрей Гаврилов
Аудио #2: AC3, 6 ch, 448 Кбит/сек | Русский, авторский (одноголосый закадровый) Юрий Живов
Аудио #3: AC3, 2 ch, 192 Кбит/сек | Русский, авторский (одноголосый закадровый) Вартан Дохалов
Аудио #4: AC3, 6 ch, 448 Кбит/сек | Итальянский, оригинал
Аудио #5: AC3, 6 ch, 448 Кбит/сек | Английский, профессиональный (полное дублирование)



Скриншоты
Инфо-файл
x264 [info]: frame I:679 Avg QP:17.57 size:116881
x264 [info]: frame P:26850 Avg QP:19.62 size: 72423
x264 [info]: frame B:103764 Avg QP:21.49 size: 36351
-----------------------------------------------------
Общее
Уникальный идентификатор : 178499529774128238454847637434167956385 (0x8649C24A39EECC47A4A9D7F365FF93A1)
Полное имя : Пожиратели.плоти.1979.BDRip.720p.KORSAR.mkv
Формат : Matroska
Версия формата : Version 2
Размер файла : 6,66 Гбайт
Продолжительность : 1 ч. 31 м.
Общий поток : 10,5 Мбит/сек
Дата кодирования : UTC 2018-12-23 13:58:51
Программа кодирования : mkvmerge v5.8.0 ('No Sleep / Pillow') built on Sep 2 2012 15:37:04
Библиотека кодирования : libebml v1.2.3 + libmatroska v1.3.0

Видео
Идентификатор : 1
Формат : AVC
Формат/Информация : Advanced Video Codec
Профиль формата : [email protected]
Настройки формата : CABAC / 12 Ref Frames
Параметр CABAC формата : Да
Параметр RefFrames формата : 12 кадров
Идентификатор кодека : V_MPEG4/ISO/AVC
Продолжительность : 1 ч. 31 м.
Битрейт : 8468 Кбит/сек
Ширина : 1272 пикселя
Высота : 530 пикселей
Соотношение сторон : 2,40:1
Режим частоты кадров : Постоянный
Частота кадров : 23,976 (24000/1001) кадра/сек
Цветовое пространство : YUV
Субдискретизация насыщенности : 4:2:0
Битовая глубина : 8 бит
Тип развёртки : Прогрессивная
Бит/(Пиксели*Кадры) : 0.524
Размер потока : 5,27 Гбайт (79%)
Заголовок : RIP | MZMA
Библиотека кодирования : x264 core 152 r2851kMod ba24899
Настройки программы : cabac=1 / ref=12 / deblock=1:-2:-2 / analyse=0x3:0x113 / me=umh / subme=11 / psy=1 / fade_compensate=0.00 / psy_rd=1.00:0.00 / mixed_ref=1 / me_range=48 / chroma_me=1 / trellis=2 / 8x8dct=1 / cqm=0 / deadzone=21,11 / fast_pskip=0 / chroma_qp_offset=-2 / threads=6 / lookahead_threads=1 / sliced_threads=0 / nr=0 / decimate=0 / interlaced=0 / bluray_compat=0 / constrained_intra=0 / bframes=16 / b_pyramid=2 / b_adapt=2 / b_bias=0 / direct=3 / weightb=1 / open_gop=0 / weightp=2 / keyint=240 / keyint_min=23 / scenecut=40 / intra_refresh=0 / rc_lookahead=40 / rc=2pass / mbtree=0 / bitrate=8468 / ratetol=1.0 / qcomp=0.60 / qpmin=0 / qpmax=69 / qpstep=4 / cplxblur=20.0 / qblur=0.5 / vbv_maxrate=50000 / vbv_bufsize=62500 / nal_hrd=none / filler=0 / ip_ratio=1.25 / pb_ratio=1.30 / aq=3:0.70
Язык : English
По умолчанию : Да
Принудительно : Нет
Цветовой диапазон : Limited
Основные цвета : BT.709
Характеристики трансфера : BT.709
Коэффициенты матрицы : BT.709

Аудио #1
Идентификатор : 2
Формат : AC-3
Формат/Информация : Audio Coding 3
Идентификатор кодека : A_AC3
Продолжительность : 1 ч. 31 м.
Вид битрейта : Постоянный
Битрейт : 448 Кбит/сек
Каналы : 6 каналов
Расположение каналов : Front: L C R, Side: L R, LFE
Частота : 48,0 КГц
Частота кадров : 31,250 кадров/сек (1536 SPF)
Битовая глубина : 16 бит
Метод сжатия : С потерями
Размер потока : 292 Мбайт (4%)
Заголовок : AVO | А. Гаврилов
Язык : Russian
По умолчанию : Да
Принудительно : Нет

Аудио #2
Идентификатор : 3
Формат : AC-3
Формат/Информация : Audio Coding 3
Идентификатор кодека : A_AC3
Продолжительность : 1 ч. 31 м.
Вид битрейта : Постоянный
Битрейт : 448 Кбит/сек
Каналы : 6 каналов
Расположение каналов : Front: L C R, Side: L R, LFE
Частота : 48,0 КГц
Частота кадров : 31,250 кадров/сек (1536 SPF)
Битовая глубина : 16 бит
Метод сжатия : С потерями
Размер потока : 292 Мбайт (4%)
Заголовок : AVO | Ю. Живов
Язык : Russian
По умолчанию : Нет
Принудительно : Нет

Аудио #3
Идентификатор : 4
Формат : AC-3
Формат/Информация : Audio Coding 3
Идентификатор кодека : A_AC3
Продолжительность : 1 ч. 31 м.
Вид битрейта : Постоянный
Битрейт : 192 Кбит/сек
Каналы : 2 канала
Расположение каналов : Front: L R
Частота : 48,0 КГц
Частота кадров : 31,250 кадров/сек (1536 SPF)
Битовая глубина : 16 бит
Метод сжатия : С потерями
Размер потока : 125 Мбайт (2%)
Заголовок : AVO | В. Дохалов
Язык : Russian
По умолчанию : Нет
Принудительно : Нет

Аудио #4
Идентификатор : 5
Формат : AC-3
Формат/Информация : Audio Coding 3
Идентификатор кодека : A_AC3
Продолжительность : 1 ч. 31 м.
Вид битрейта : Постоянный
Битрейт : 448 Кбит/сек
Каналы : 6 каналов
Расположение каналов : Front: L C R, Side: L R, LFE
Частота : 48,0 КГц
Частота кадров : 31,250 кадров/сек (1536 SPF)
Битовая глубина : 16 бит
Метод сжатия : С потерями
Размер потока : 292 Мбайт (4%)
Заголовок : Originale
Язык : Italian
По умолчанию : Нет
Принудительно : Нет

Аудио #5
Идентификатор : 6
Формат : AC-3
Формат/Информация : Audio Coding 3
Идентификатор кодека : A_AC3
Продолжительность : 1 ч. 31 м.
Вид битрейта : Постоянный
Битрейт : 448 Кбит/сек
Каналы : 6 каналов
Расположение каналов : Front: L C R, Side: L R, LFE
Частота : 48,0 КГц
Частота кадров : 31,250 кадров/сек (1536 SPF)
Битовая глубина : 16 бит
Метод сжатия : С потерями
Размер потока : 292 Мбайт (4%)
Заголовок : DUB
Язык : English
По умолчанию : Нет
Принудительно : Нет

Текст #1
Идентификатор : 7
Формат : UTF-8
Идентификатор кодека : S_TEXT/UTF8
Идентификатор кодека/Информация : UTF-8 Plain Text
Язык : Russian
По умолчанию : Нет
Принудительно : Нет

Текст #2
Идентификатор : 8
Формат : UTF-8
Идентификатор кодека : S_TEXT/UTF8
Идентификатор кодека/Информация : UTF-8 Plain Text
Язык : English
По умолчанию : Нет
Принудительно : Нет

Меню
00:00:00.000 : en:1. Main Titles
00:01:51.421 : en:2. Abandoned Ship
00:08:06.671 : en:3. Investigation
00:12:50.080 : en:4. Snooping Around
00:19:05.245 : en:5. Travel Plans
00:23:20.918 : en:6. Trouble In Paradise
00:30:35.601 : en:7. Shark vs. Zombie
00:37:46.700 : en:8. The Afflicted
00:41:13.113 : en:9. Splinter In The Eye
00:46:20.046 : en:10. Damage Control
00:52:07.977 : en:11. Bullet In The Head
00:59:44.265 : en:12. Zombie Flesh Eaters
01:04:47.861 : en:13. Jungle Drums
01:08:13.357 : en:14. The Dead Shall Rise
01:15:28.250 : en:15. Under Siege
01:22:38.848 : en:16. Last Stand
01:27:01.192 : en:17. Taking Over
01:30:28.607 : en:18. End Credits
Скачать сэмпл
Pozhirateli.ploti.1979.BDRip.720p.KORSAR_sample.mkv
Релиз от:
 

Вложения

  • 34,3 KB Просмотры: 0
    Личеров 0
    Сидеров 0
    Файлов 1
    Объем 6,7 GB
Ваш e-mail не будет опубликован. Он потребуется для подтверждения Вашего поста.
Оформление текста Нажмите «Ввод», чтобы отправить ответ.