За сегодня опубликовано 18 новых материалов.
Инструкция новичку Путеводитель по форуму Прокси для Telegram Показать подсказки , это бомба!

Скачать Последний уик-энд (2005) DVDRip-AVC бесплатно через торрент

  • Получай до 480 рублей за каждого приглашенного пользователя!
    представляем Вам очередное расширение партнерской программы, подробности описаны тут -> ссылка
  • 90% материалов доступно к скачиванию после простой регистрации!
    Если же ты хочешь скачивать материалы без требования оставлять отзывы то получи группу "Новичок", 10 способов повышения описаны тут -> ссылка
  • К сожалению количество битых ссылок растет и мы уже не можем их оперативно восстанавливать поэтому просим помощи у каждого нашего пользователя.
    С сегодняшнего дня, за каждую восстановленную ссылку мы заплатим Вам.
    Подробнее тут -> ссылка
  • Перенесем твои заслуги с другого ресурса!
    Мы понимаем как сложно прокачивать аккаунты на форумах, вроде раскачал аккаунт, а тут появляется ресурс в 100 раз круче но тоже с системой прокачки и снова качать аккаунт...
    Предлагаем вам перенести Ваши заслуги на другом подобном ресурсе к нам.
    Подробности описаны тут -> ссылка
  • Вы можете получать по 2.5% с каждой покупки и продажи на маркете! Подробности в теме Партнёрская программа
Если Вы не хотите скачивать, Вы всегда можете посмотреть онлайн, просто нажмите кнопку ниже :

Открыть плеер

Torrent_Bot

Торрент-Бот
Бот форума
4 Окт 2016
125
32
20



Информация о фильме
Название: Последний уик-энд
Год выхода: 2005
Жанр: Триллер, драма
Режиссер: Павел Санаев
В ролях: Иван Стебунов, Татьяна Арнтгольц, Илья Соколовский, Артём Семакин, Ритис Скрипка, Гоша Куценко, Константин Исаев, Роман Степенский, Игорь Регнер, Андрей Кузькин, Дмитрий Лямочкин, Игорь Самойлов

О фильме:
Владелец охранной фирмы (в прошлом - криминальный авторитет по кличке Бешеный) собирается отправить на учёбу в Америку своего единственного младшего брата Мишу. А чтобы тому не было скучно на чужбине, готов даже профинансировать учёбу там же его лучшего друга Кирилла. Но перед самым отъездом в результате несчастного случая Миша погибает прямо на глазах своих приятелей - Кирилла, Глеба, Антона и Кати, которые пытались, но не смогли его спасти. И за это Бешеный наверняка убьет их. Чтобы спастись, ребята решают уничтожить тело Миши...



Страна: Россия
Студия: Киностудия "Глобус"
Продолжительность: 01:26:36
Язык: Русский

Файл
Формат: Matroska
Качество: DVDRip-AVC
Видео: 718=>766x458 at 25.00 fps, x264, ~3220 kbps
Аудио: AC3, 6 ch, ~384 kbps - | Русский | -
Субтитры: Нет

***Релиз от:-=DoMiNo=-

M/I
x264 info: frame I:1163 Avg QP:16.05 size: 66589
x264 info: frame P:29117 Avg QP:18.11 size: 29259
x264 info: frame B:99626 Avg QP:20.29 size: 11658
x264 info: consecutive B-frames: 2.8% 3.4% 9.1% 18.4% 15.8% 39.9% 5.6% 2.1% 1.5% 0.6% 0.4% 0.3% 0.1%

General
Unique ID : 79110518955168042889831374254032628911 (0x3B8421B98713CF02C68416321F892CAF)
Complete name : Последний уик-энд.(2005).DVDRip-AVC.[-=DoMiNo=-].mkv
Format : Matroska
Format version : Version 4
File size : 2.18 GiB
Duration : 1 h 26 min
Overall bit rate : 3 606 kb/s
Movie name : Последний уик-энд
Deion : История юношеской любви переплетается с криминальной историей четырех ребят, решивших уничтожить тело случайно погибшего товарища. Два перекликающихся сюжета раскрывают тему морального выбора, определяющего людские судьбы.
Attachments : poster
ACTORS : Ivan Stebunov, Tatyana Arntgolts, Ilya Sokolovskiy, Artyom Semakin, Yuriy Kutsenko
COUNTRY : Russia
GENRE : Триллер, Драма

Video
ID : 1
Format : AVC
Format/Info : Advanced Video Codec
Format profile : [email protected]
Format settings : CABAC / 14 Ref Frames
Format settings, CABAC : Yes
Format settings, Reference : 14 frames
Codec ID : V_MPEG4/ISO/AVC
Duration : 1 h 26 min
Bit rate : 3 220 kb/s
Width : 718 pixels
Height : 458 pixels
Display aspect ratio : 5:3
Frame rate mode : Constant
Frame rate : 25.000 FPS
Color space : YUV
Chroma subsampling : 4:2:0
Bit depth : 8 bits
Scan type : Progressive
Bits/(Pixel*Frame) : 0.392
Stream size : 1.91 GiB (87%)
Title : RIP_BY_-=DoMiNo=-
Writing library : x264 core 157 r2969 d4099dd
Encoding settings : cabac=1 / ref=14 / deblock=1:-2:-2 / analyse=0x3:0x133 / me=umh / subme=11 / psy=1 / psy_rd=1.05:0.15 / mixed_ref=1 / me_range=48 / chroma_me=1 / trellis=2 / 8x8dct=1 / cqm=0 / deadzone=21,11 / fast_pskip=0 / chroma_qp_offset=-3 / threads=6 / lookahead_threads=1 / sliced_threads=0 / nr=0 / decimate=1 / interlaced=0 / bluray_compat=0 / constrained_intra=0 / bframes=12 / b_pyramid=2 / b_adapt=2 / b_bias=0 / direct=3 / weightb=1 / open_gop=0 / weightp=2 / keyint=250 / keyint_min=23 / scenecut=40 / intra_refresh=0 / rc_lookahead=120 / rc=2pass / mbtree=0 / bitrate=3220 / ratetol=1.0 / qcomp=0.70 / qpmin=0 / qpmax=69 / qpstep=4 / cplxblur=20.0 / qblur=0.5 / vbv_maxrate=50000 / vbv_bufsize=62500 / nal_hrd=none / filler=0 / ip_ratio=1.40 / pb_ratio=1.30 / aq=3:0.80
Default : Yes
Forced : No
Color range : Limited

Audio
ID : 2
Format : AC-3
Format/Info : Audio Coding 3
Commercial name : Dolby Digital
Codec ID : A_AC3
Duration : 1 h 26 min
Bit rate mode : Constant
Bit rate : 384 kb/s
Channel(s) : 6 channels
Channel layout : L R C LFE Ls Rs
Sampling rate : 48.0 kHz
Frame rate : 31.250 FPS (1536 SPF)
Bit depth : 16 bits
Compression mode : Lossy
Stream size : 238 MiB (11%)
Language : Russian
Service kind : Complete Main
Default : Yes
Forced : No

Menu
00:00:00.000 : :Глава 0
00:08:38.280 : :Глава 1
00:18:49.440 : :Глава 2
00:28:39.120 : :Глава 3
00:38:14.880 : :Глава 4
00:44:03.240 : :Глава 5
00:49:13.680 : :Глава 6
00:54:08.880 : :Глава 7
00:59:48.120 : :Глава 8
01:07:17.160 : :Глава 9
01:12:25.680 : :Глава 10
01:23:42.000 : :Глава 11
01:26:34.840 : :Глава 12
Скриншоты
 

Вложения

  • 12 KB Просмотры: 0
    Личеров 0
    Сидеров 0
    Файлов 1
    Объем 2,2 GB
Ваш e-mail не будет опубликован. Он потребуется для подтверждения Вашего поста.
Оформление текста Нажмите «Ввод», чтобы отправить ответ.