За последнюю неделю опубликовано 35 новых материалов.
Инструкция новичку Путеводитель по форуму Прокси для Telegram Показать подсказки , это бомба!

Поцелуй дракона / Kiss of the Dragon (2001) BDRip 720p | GER Transfer | D, P, A

  • Поучаствуй (в качестве покупателя) в любых пяти совместных покупках (кроме завершённых и "Моментальных") и получи группу "Новичок" навсегда -> ссылка на раздел
  • Получай до 480 рублей за каждого приглашенного пользователя!
    представляем Вам очередное расширение партнерской программы, подробности описаны тут -> ссылка
  • 90% материалов доступно к скачиванию после простой регистрации!
    Если же ты хочешь скачивать материалы без требования оставлять отзывы то получи группу "Новичок", 10 способов повышения описаны тут -> ссылка
  • К сожалению количество битых ссылок растет и мы уже не можем их оперативно восстанавливать поэтому просим помощи у каждого нашего пользователя.
    С сегодняшнего дня, за каждую восстановленную ссылку мы заплатим Вам.
    Подробнее тут -> ссылка
  • Перенесем твои заслуги с другого ресурса!
    Мы понимаем как сложно прокачивать аккаунты на форумах, вроде раскачал аккаунт, а тут появляется ресурс в 100 раз круче но тоже с системой прокачки и снова качать аккаунт...
    Предлагаем вам перенести Ваши заслуги на другом подобном ресурсе к нам.
    Подробности описаны тут -> ссылка
  • Вы можете получать по 2.5% с каждой покупки и продажи на маркете! Подробности в теме Партнёрская программа
Если Вы не хотите скачивать, Вы всегда можетепосмотретьонлайн, просто нажмите кнопку ниже :

Открыть плеер

Torrent_Bot

Торрент-Бот
Бот форума
4 Окт 2016
125
66
20


Информация о фильме
Название: Поцелуй дракона
Оригинальное название: Kiss of the Dragon
Год выхода: 2001
Жанр: боевик, триллер, криминал
Режиссер: Крис Наон

В ролях:
Джет Ли — Лю «Джонни» Сюцзянь, Бриджит Фонда — Джессика Камен, Чеки Карио — инспектор Жан-Пьер Ришар, Макс Райан — Лупо, Сирил Рафаели — близнец, Дидье Азулэй — близнец, Винсент Вонг — министр Танг, Джон Форджэм — Макс, Пол Баррет — пилот, Кэнтаро — Чен, Давид Габисон — министр Франции, Урфе Купаки — таксист растаман, Жан-Жорж Вонжериште — бармен.

О фильме:
Лю Сюцзянь, агент китайской разведки, послан своим ведомством в Париж чтобы помочь французской полиции поймать китайского гангстера, замешанного в контрабанде героина. Но грязный инспектор Жан-Пьер Ришар жестоко убивает гангстера и подставляет Лю, сваливая всё на иностранца.

Лю уходит в подполье, пытаясь найти способ оправдать себя и вернуться домой. Он встречается с Джессикой Камен, американкой которую Ришар заставил заниматься проституцией. Лю узнаёт, что Джессика является свидетелем убийства гангстера и может доказать его невиновность, но Ришар, зная это, похищает дочь Джессики Изабель. Не видя другого выхода, Лю вступает в противоборство с преследователями, пытаясь очистить своё имя.




Страна: Франция США
Студия: StudioCanal, EuropaCorp, 20th Century Fox, Buena Vista International
Продолжительность: 01:38:13
Перевод: Дублированный, Профессиональный многоголосый, Авторский одноголосый, Оригинал

Файл
Кодек: x264
Качество: BDRip 720p
Видео: 1280x542 (2,35:1), 23.976 fps, 4671 kbps
Звук:
Аудио #1: AC3, 448 Kbps, 48.0 KHz, 6 ch (Rus) Дублированный
Аудио #2: AC3, 384 Kbps, 48.0 KHz, 5 ch (Rus) Профессиональный многоголосый
Аудио #3: AC3, 384 Kbps, 48.0 KHz, 6 ch (Rus) Авторский одноголосый, А.Гаврилов
Аудио #4: AC3, 448 Kbps, 48.0 KHz, 6 ch (Eng) Оригинал
Субтитры: Русские, Английские

Скриншоты



MediaInfo
Формат : Matroska
Версия формата : Version 2
Размер файла : 4,35 Гбайт
Продолжительность : 1 ч. 38 м.
Общий поток : 6334 Кбит/сек
Дата кодирования : UTC 2015-02-18 19:28:01
Программа кодирования : mkvmerge v5.4.0 ('Piper') built on Mar 10 2012 13:34:39
Библиотека кодирования : libebml v1.2.3 + libmatroska v1.3.0

Видео
Идентификатор : 1
Формат : AVC
Формат/Информация : Advanced Video Codec
Профиль формата : [email protected]
Параметр CABAC формата : Да
Параметр ReFrames формата : 9 кадров
Идентификатор кодека : V_MPEG4/ISO/AVC
Продолжительность : 1 ч. 38 м.
Битрейт : 4671 Кбит/сек
Ширина : 1280 пикселей
Высота : 542 пикселя
Соотношение сторон : 2,35:1
Режим частоты кадров : Постоянный
Частота кадров : 23,976 кадра/сек
Цветовое пространство : YUV
Субдискретизация насыщенности : 4:2:0
Битовая глубина : 8 бит
Тип развёртки : Прогрессивная
Бит/(Пиксели*Кадры) : 0.281
Размер потока : 3,12 Гбайт (72%)
Заголовок : Kiss of the Dragon / Поцелуй дракона (2001)
Библиотека кодирования : x264 core 122 r2184 5c85e0a
Настройки программы : cabac=1 / ref=9 / deblock=1:-3:-3 / analyse=0x3:0x133 / me=umh / subme=10 / psy=1 / psy_rd=1.00:0.20 / mixed_ref=1 / me_range=48 / chroma_me=1 / trellis=2 / 8x8dct=1 / cqm=0 / deadzone=21,11 / fast_pskip=1 / chroma_qp_offset=-3 / threads=6 / sliced_threads=0 / nr=0 / decimate=1 / interlaced=0 / bluray_compat=0 / constrained_intra=0 / bframes=8 / b_pyramid=2 / b_adapt=2 / b_bias=0 / direct=3 / weightb=1 / open_gop=0 / weightp=2 / keyint=250 / keyint_min=23 / scenecut=40 / intra_refresh=0 / rc_lookahead=60 / rc=2pass / mbtree=1 / bitrate=4671 / ratetol=1.0 / qcomp=0.60 / qpmin=0 / qpmax=69 / qpstep=4 / cplxblur=20.0 / qblur=0.5 / ip_ratio=1.40 / aq=1:1.00
Язык : English
Default : Да
Forced : Нет

Аудио #1
Идентификатор : 2
Формат : AC-3
Формат/Информация : Audio Coding 3
Расширение режима : CM (complete main)
Параметр Endianness формата : Big
Идентификатор кодека : A_AC3
Продолжительность : 1 ч. 38 м.
Вид битрейта : Постоянный
Битрейт : 448 Кбит/сек
Каналы : 6 каналов
Расположение каналов : Front: L C R, Side: L R, LFE
Частота : 48,0 КГц
Битовая глубина : 16 бит
Метод сжатия : С потерями
Размер потока : 315 Мбайт (7%)
Заголовок : DUB (Russian)
Язык : Russian
Default : Да
Forced : Нет

Аудио #2
Идентификатор : 3
Формат : AC-3
Формат/Информация : Audio Coding 3
Расширение режима : CM (complete main)
Параметр Endianness формата : Big
Идентификатор кодека : A_AC3
Продолжительность : 1 ч. 38 м.
Вид битрейта : Постоянный
Битрейт : 384 Кбит/сек
Каналы : 5 каналов
Расположение каналов : Front: L C R, Side: L R
Частота : 48,0 КГц
Битовая глубина : 16 бит
Метод сжатия : С потерями
Размер потока : 270 Мбайт (6%)
Заголовок : MVO (Russian)
Язык : Russian
Default : Нет
Forced : Нет

Аудио #3
Идентификатор : 4
Формат : AC-3
Формат/Информация : Audio Coding 3
Расширение режима : CM (complete main)
Параметр Endianness формата : Big
Идентификатор кодека : A_AC3
Продолжительность : 1 ч. 38 м.
Вид битрейта : Постоянный
Битрейт : 384 Кбит/сек
Каналы : 6 каналов
Расположение каналов : Front: L C R, Side: L R, LFE
Частота : 48,0 КГц
Битовая глубина : 16 бит
Метод сжатия : С потерями
Размер потока : 270 Мбайт (6%)
Заголовок : AVO (А.Гаврилов)
Язык : Russian
Default : Нет
Forced : Нет

Аудио #4
Идентификатор : 5
Формат : AC-3
Формат/Информация : Audio Coding 3
Расширение режима : CM (complete main)
Параметр Endianness формата : Big
Идентификатор кодека : A_AC3
Продолжительность : 1 ч. 38 м.
Вид битрейта : Постоянный
Битрейт : 448 Кбит/сек
Каналы : 6 каналов
Расположение каналов : Front: L C R, Side: L R, LFE
Частота : 48,0 КГц
Битовая глубина : 16 бит
Метод сжатия : С потерями
Размер потока : 315 Мбайт (7%)
Заголовок : Original (English)
Язык : English
Default : Нет
Forced : Нет

Текст #1
Идентификатор : 6
Формат : UTF-8
Идентификатор кодека : S_TEXT/UTF8
Идентификатор кодека/Информация : UTF-8 Plain Text
Заголовок : Rus
Язык : Russian
Default : Нет
Forced : Нет

Текст #2
Идентификатор : 7
Формат : UTF-8
Идентификатор кодека : S_TEXT/UTF8
Идентификатор кодека/Информация : UTF-8 Plain Text
Заголовок : Eng
Язык : English
Default : Нет
Forced : Нет

Меню
00:00:00.000 : en:Main Titles
00:04:36.526 : en:Mr. Smith
00:10:40.139 : en:Welcome to Paris
00:16:29.280 : en:A Situation
00:24:24.213 : en:Double-Crossed
00:27:12.214 : en:Into the Fire
00:32:15.600 : en:Gare De L'est
00:43:13.716 : en:Our Best Man
00:51:36.176 : en:The Farmer's Daughter
00:57:37.829 : en:A Kind Person
01:04:30.283 : en:The Tour Boat Trip
01:07:26.209 : en:On the Run
01:11:27.492 : en:Help From Jessica
01:14:19.497 : en:A Tough Client
01:18:23.449 : en:The Witness
01:21:52.950 : en:Trust
01:28:46.905 : en:Jessica's Escape
01:31:51.715 : en:The Orphanage
01:33:22.972 : en:Liu Jian's Promise

Релиз от: big1987
 

Вложения

  • 12 KB Просмотры: 1
    Личеров 0
    Сидеров 0
    Файлов 1
    Объем 4,3 GB
Ваш e-mail не будет опубликован. Он потребуется для подтверждения Вашего поста.
Оформление текста Нажмите «Ввод», чтобы отправить ответ.