За сегодня опубликовано 15 новых материалов.
Инструкция новичку Путеводитель по форуму Прокси для Telegram Показать подсказки , это бомба!

Скачать Побег из Собибора / Escape from Sobibor (1987) BDRip 720p от KORSAR | 4:3 Version | A бесплатно через торрент

  • Получай до 480 рублей за каждого приглашенного пользователя!
    представляем Вам очередное расширение партнерской программы, подробности описаны тут -> ссылка
  • 90% материалов доступно к скачиванию после простой регистрации!
    Если же ты хочешь скачивать материалы без требования оставлять отзывы то получи группу "Новичок", 10 способов повышения описаны тут -> ссылка
  • К сожалению количество битых ссылок растет и мы уже не можем их оперативно восстанавливать поэтому просим помощи у каждого нашего пользователя.
    С сегодняшнего дня, за каждую восстановленную ссылку мы заплатим Вам.
    Подробнее тут -> ссылка
  • Перенесем твои заслуги с другого ресурса!
    Мы понимаем как сложно прокачивать аккаунты на форумах, вроде раскачал аккаунт, а тут появляется ресурс в 100 раз круче но тоже с системой прокачки и снова качать аккаунт...
    Предлагаем вам перенести Ваши заслуги на другом подобном ресурсе к нам.
    Подробности описаны тут -> ссылка
  • Вы можете получать по 2.5% с каждой покупки и продажи на маркете! Подробности в теме Партнёрская программа
Если Вы не хотите скачивать, Вы всегда можете посмотреть онлайн, просто нажмите кнопку ниже :

Открыть плеер

Torrent_Bot

Торрент-Бот
Бот форума
4 Окт 2016
125
32
20

Побег из Собибора
Escape from Sobibor


Страна: Великобритания, Югославия
Жанр: драма, военный, история
Год выпуска: 1987
Продолжительность: 02:28:37
Перевод: Авторский (одноголосый)
Субтитры: английские.


Режиссер: Джек Голд / Jack Gold


В ролях: Алан Аркин(Leon Feldhendler), Джоанна Пакула(Luka), Рутгер Хауэр(Alexander «Sasha» Pechersky), Хартмут Бекер(Sgt. Gustav Wagner), Джек Шепард(Itzhak Lichtman), Эмиль Волк(Samuel), Саймон Грегор(Shlomo), Линал Хафт(Oberkapo Porchek), Джейсон Норман(Toivi Blatt), Роберт Гвилим(Chaim Engel), Эли Нэтенсон(Moses Szmajzner), Курт Рааб(Sgt. Frenzel)


Описание: Собибор - гитлеровский концлагерь на территории Польши, один из десятков нацистских лагерей смерти, построенных специально для уничтожения евреев из завоеванных немцами стран. Был закрыт по личному распоряжению СС Гиммлера после того, как в нем произошел самый массовый в истории лагерей смерти побег заключенных, решивших оказать сопротивление нацистскому «порядку». Основной замысел и организацию восстания взял на себя советский военнопленный - лейтенант Печерский, прибывший в Собибор вместе с группой солдат-евреев.











Качество: BDRip 720p
Контейнер: MKV

Видео: MPEG-4 AVC, 960x720 (4:3), 7500 kbps, 24 fps, 0,452 bpp
Аудио №1: русский / AC3 / 2.0 / 48 kHz / 192 kbps / AVO ( Живов со вставками VO (allecs2010) )
Аудио №2: английский / AC3 / 2.0 / 48 kHz / 192 kbps
Навигация по главам: есть


Media Info
*********************************************************
x264 [info]: frame I:1685 Avg QP:16.58 size:170919
x264 [info]: frame P:52550 Avg QP:18.75 size: 62919
x264 [info]: frame B:159773 Avg QP:20.36 size: 29817
x264 [info]: consecutive B-frames: 4.0% 4.3% 11.2% 20.1% 14.3% 42.1% 2.3% 0.3% 1.0% 0.1% 0.2%
*********************************************************
Формат : Matroska
Версия формата : Version 2
Размер файла : 8,19 Гбайт
Продолжительность : 2 ч. 28 м.
Общий поток : 7885 Кбит/сек
Название фильма : = Побег из Собибора / Escape from Sobibor (1987) BDRip 720p - KORSAR =
Дата кодирования : UTC 2019-04-24 15:18:28
Программа кодирования : mkvmerge v5.8.0 ('No Sleep / Pillow') built on Sep 2 2012 15:37:04
Библиотека кодирования : libebml v1.2.3 + libmatroska v1.3.0
Attachment : Yes

Видео
Идентификатор : 1
Формат : AVC
Формат/Информация : Advanced Video Codec
Профиль формата : [email protected]
Параметр CABAC формата : Да
Параметр ReFrames формата : 12 кадров
Идентификатор кодека : V_MPEG4/ISO/AVC
Продолжительность : 2 ч. 28 м.
Битрейт : 7500 Кбит/сек
Ширина : 960 пикселей
Высота : 720 пикселей
Соотношение сторон : 4:3
Режим частоты кадров : Постоянный
Частота кадров : 24,000 кадра/сек
Цветовое пространство : YUV
Субдискретизация насыщенности : 4:2:0
Битовая глубина : 8 бит
Тип развёртки : Прогрессивная
Бит/(Пиксели*Кадры) : 0.452
Размер потока : 7,62 Гбайт (93%)
Заголовок : Побег из Собибора / Escape from Sobibor (1987) BDRip 720p - KORSAR
Библиотека кодирования : x264 core 152 r2851kMod ba24899
Настройки программы : cabac=1 / ref=12 / deblock=1:-3:-3 / analyse=0x3:0x113 / me=umh / subme=11 / psy=1 / fade_compensate=0.00 / psy_rd=1.02:0.06 / mixed_ref=1 / me_range=48 / chroma_me=1 / trellis=2 / 8x8dct=1 / cqm=0 / deadzone=21,11 / fast_pskip=0 / chroma_qp_offset=-3 / threads=12 / lookahead_threads=3 / sliced_threads=0 / nr=0 / decimate=0 / interlaced=0 / bluray_compat=0 / constrained_intra=0 / bframes=10 / b_pyramid=2 / b_adapt=2 / b_bias=0 / direct=3 / weightb=1 / open_gop=0 / weightp=2 / keyint=240 / keyint_min=24 / scenecut=40 / intra_refresh=0 / rc_lookahead=60 / rc=2pass / mbtree=0 / bitrate=7500 / ratetol=1.0 / qcomp=0.66 / qpmin=0 / qpmax=39 / qpstep=4 / cplxblur=20.0 / qblur=0.5 / vbv_maxrate=50000 / vbv_bufsize=62500 / nal_hrd=none / filler=0 / ip_ratio=1.25 / pb_ratio=1.30 / aq=3:0.90
Язык : English
Default : Да
Forced : Нет
Основные цвета : BT.709
Характеристики трансфера : BT.709
Коэффициенты матрицы : BT.709

Аудио #1
Идентификатор : 2
Формат : AC-3
Формат/Информация : Audio Coding 3
Расширение режима : CM (complete main)
Параметр Endianness формата : Big
Идентификатор кодека : A_AC3
Продолжительность : 2 ч. 28 м.
Вид битрейта : Постоянный
Битрейт : 192 Кбит/сек
Каналы : 2 канала
Расположение каналов : Front: L R
Частота : 48,0 КГц
Битовая глубина : 16 бит
Метод сжатия : С потерями
Размер потока : 204 Мбайт (2%)
Заголовок : AVO ( Живов со вставками VO (allecs2010) )
Язык : Russian
Default : Да
Forced : Нет

Аудио #2
Идентификатор : 3
Формат : AC-3
Формат/Информация : Audio Coding 3
Расширение режима : CM (complete main)
Параметр Endianness формата : Big
Идентификатор кодека : A_AC3
Продолжительность : 2 ч. 28 м.
Вид битрейта : Постоянный
Битрейт : 192 Кбит/сек
Каналы : 2 канала
Расположение каналов : Front: L R
Частота : 48,0 КГц
Битовая глубина : 16 бит
Метод сжатия : С потерями
Размер потока : 204 Мбайт (2%)
Язык : English
Default : Нет
Forced : Нет

Текст #1
Идентификатор : 4
Формат : UTF-8
Идентификатор кодека : S_TEXT/UTF8
Идентификатор кодека/Информация : UTF-8 Plain Text
Язык : English
Default : Нет
Forced : Нет

Текст #2
Идентификатор : 5
Формат : UTF-8
Идентификатор кодека : S_TEXT/UTF8
Идентификатор кодека/Информация : UTF-8 Plain Text
Заголовок : SDH
Язык : English
Default : Нет
Forced : Нет

Меню
00:00:00.000 : en:Chapter 01
00:18:11.625 : en:Chapter 02
00:24:10.916 : en:Chapter 03
00:37:21.500 : en:Chapter 04
00:46:03.458 : en:Chapter 05
00:55:28.791 : en:Chapter 06
01:16:10.583 : en:Chapter 07
01:30:33.833 : en:Chapter 08
01:41:19.083 : en:Chapter 09
01:48:18.708 : en:Chapter 10
02:03:47.875 : en:Chapter 11
02:13:52.708 : en:Chapter 12


Скриншоты

 

Вложения

  • 41,9 KB Просмотры: 0
    Личеров 0
    Сидеров 0
    Файлов 1
    Объем 8,2 GB
Ваш e-mail не будет опубликован. Он потребуется для подтверждения Вашего поста.
Оформление текста Нажмите «Ввод», чтобы отправить ответ.